Статистика раздачи
Размер:  113 MB   |    Зарегистрирован:  6 месяцев 21 день   |    Скачан:  0 раз

Полного источника не было: Никогда

 
     
 
 

Гость ®

Пол:
Не указан

Два взгляда на одно и то же
Страна: СССР (Белорусская республика)
Жанр: мультфильм для взрослых
Продолжительность: 00:09:40
Год выпуска: 1972
Русские субтитры: нет
Режиссёры: В.Голиков, М.Лубянникова
Описание: Сатирический мультфильм о нарушителях правил дорожного движения.
Доп. информация: Первый мультфильм, снятый на студии "Беларусьфильм".
Информация о всех мультфильмах студии - http://cybertorrent.ru/forum/viewtopic.php?t=5721343
Качество: WEBRip
Формат: AVI
Видео: 1499 kbps, 640х464 (1.379), 25.000 fps, MPEG-4 Visual (XviD)
Аудио: 128 kbps, 48.0 kHz, 2 channels, MPEG Audio (MP3)
Субтитры: отсутствуют

Подробные технические данные

General
Complete name : Два взгляда на одно и то же (1972).avi
Format : AVI
Format/Info : Audio Video Interleave
File size : 113 MiB
Duration : 9mn 40s
Overall bit rate : 1 637 Kbps
Video
ID : 0
Format : MPEG-4 Visual
Format profile : Advanced Simple@L5
Format settings, BVOP : 2
Format settings, QPel : No
Format settings, GMC : No warppoints
Format settings, Matrix : Default (H.263)
Codec ID : XVID
Codec ID/Hint : XviD
Duration : 9mn 40s
Bit rate : 1 499 Kbps
Width : 640 pixels
Height : 464 pixels
Display aspect ratio : 1.379
Frame rate : 25.000 fps
Color space : YUV
Chroma subsampling : 4:2:0
Bit depth : 8 bits
Scan type : Progressive
Compression mode : Lossy
Bits/(Pixel*Frame) : 0.202
Stream size : 104 MiB (92%)
Writing library : XviD 73
Audio
ID : 1
Format : MPEG Audio
Format version : Version 1
Format profile : Layer 3
Codec ID : 55
Codec ID/Hint : MP3
Duration : 9mn 40s
Bit rate mode : Constant
Bit rate : 128 Kbps
Channel(s) : 2 channels
Sampling rate : 48.0 KHz
Compression mode : Lossy
Stream size : 8.85 MiB (8%)
Alignment : Aligned on interleaves
Interleave, duration : 40 ms (1.00 video frame)
Interleave, preload duration : 504 ms
Writing library : LAME3.99r
Encoding settings : -m s -V 4 -q 2 -lowpass 17 -b 128

Скриншоты

[cybertorrent.net].t2403.torrent 
Торрент: Зарегистрирован [ 2019-05-01 16:45 ] · E80883E8C52E361657031BD4D87E9DB20FA62C97

Скачать .torrent

Скачать

18 KB

Статус: проверено
Скачан: 0 раз
Размер: 113 MB
terms.php
Показать сообщения:    

Текущее время: 23-Ноя 02:14

Часовой пояс: UTC ± 0



Вы не можете начинать темы
Вы не можете отвечать на сообщения
Вы не можете редактировать свои сообщения
Вы не можете удалять свои сообщения
Вы не можете голосовать в опросах
Вы не можете прикреплять файлы к сообщениям
Вы можете скачивать файлы