Статистика раздачи
Размер:  491 MB   |    Зарегистрирован:  6 месяцев 12 дней   |    Скачан:  0 раз

Полного источника не было: Никогда

 
     
 
 

karlll ®

Пол:
Не указан
Стаж:
8 месяцев 1 день
Сообщений:
171

Храбрый портняжка / Das tapfere Schneiderlein
Страна: ГДР
Жанр: сказка
Продолжительность: 0:31:23
Год выпуска: 1964
Перевод: Любительский (многоголосый закадровый, progulkin & Co.)
Русские субтитры: нет
Режиссёр: Курт Вайлер / Kurt Weiler
Описание: Однажды молодому портному удалось убить одним ударом семерых мух, налетевших на его хлеб с повидлом. Паренек изумился своей удали и решил показать всему миру, каков он храбрец-молодец...
По одноименной сказке братьев Гримм.
Доп. информация: Этот вариант подвигов портняжки более соответствует немецкому первоисточнику, чем наш музыкальный мультфильм - здесь есть эпизод с диким вепрем (дикой свиньей) и шишками он кидается именно в спящих великанов, а не в разбойников.
Качество: DVDRip
Формат: AVI
Видео: Xvid, 720x544, 25 fps, 1986 kbps
Аудио: MP3, 48000 Hz, 192 kbps
Субтитры: отсутствуют

Подробные технические данные

General
Complete name : 1964 - Das tapfere Schneiderlein.avi
Format : AVI
Format/Info : Audio Video Interleave
File size : 491 MiB
Duration : 31 min 23 s
Overall bit rate : 2 188 kb/s
Writing application : VirtualDubMod 1.5.10.3 | www.virtualdub-fr.org || (build 2550/release)
Writing library : VirtualDubMod build 2550/release
Video
ID : 0
Format : MPEG-4 Visual
Format profile : Advanced Simple@L5
Format settings, BVOP : 2
Format settings, QPel : No
Format settings, GMC : No warppoints
Format settings, Matrix : Default (H.263)
Codec ID : XVID
Codec ID/Hint : XviD
Duration : 31 min 23 s
Bit rate : 1 986 kb/s
Width : 720 pixels
Height : 544 pixels
Display aspect ratio : 4:3
Frame rate : 25.000 FPS
Color space : YUV
Chroma subsampling : 4:2:0
Bit depth : 8 bits
Scan type : Progressive
Compression mode : Lossy
Bits/(Pixel*Frame) : 0.203
Stream size : 446 MiB (91%)
Writing library : XviD 73
Audio
ID : 1
Format : MPEG Audio
Format version : Version 1
Format profile : Layer 3
Mode : Joint stereo
Mode extension : MS Stereo
Codec ID : 55
Codec ID/Hint : MP3
Duration : 31 min 23 s
Bit rate mode : Constant
Bit rate : 192 kb/s
Channel(s) : 2 channels
Sampling rate : 48.0 kHz
Compression mode : Lossy
Stream size : 43.1 MiB (9%)
Alignment : Aligned on interleaves
Interleave, duration : 40 ms (1.00 video frame)
Interleave, preload duration : 504 ms

Скриншоты


Благодарность pmv за обработку исходника!
[cybertorrent.net].t2402.torrent 
Торрент: Зарегистрирован [ 2019-05-01 16:45 ] · 05F16B3DF040734FD7BB5088CCD211B08BB7BF49

Скачать .torrent

Скачать

20 KB

Статус: проверено
Скачан: 0 раз
Размер: 491 MB
terms.php
Профиль ЛС
Показать сообщения:    

Текущее время: 14-Ноя 04:05

Часовой пояс: UTC ± 0



Вы не можете начинать темы
Вы не можете отвечать на сообщения
Вы не можете редактировать свои сообщения
Вы не можете удалять свои сообщения
Вы не можете голосовать в опросах
Вы не можете прикреплять файлы к сообщениям
Вы можете скачивать файлы