Статистика раздачи
Размер:  5,11 GB   |    Зарегистрирован:  6 месяцев 20 дней   |    Скачан:  0 раз

Полного источника не было: Никогда

 
     
 
 

Гость ®

Пол:
Не указан

Мамаша / Mom
Год выпуска: 2018
Страна: США
Жанр: Комедия, ситком
Продолжительность: ~ 00:22:00
Перевод: Профессиональный (двухголосый закадровый)[Gears Media]
Режиссёр: Джефф Гринштейн
В ролях: Анна Фэрис, Эллисон Джэнни, Сэди Кальвано, Блейк Гаррет, Натан Кордри, Спенсер Дэниелс, Мэтт Джонс, Френч Стюарт, Анджело Романелли, Антонио Гомес, Майлз Дж.Д. Веддер, Регги Де Леон, Девид де Латур, Кортни Хенгелер, Джесси Мерлин, Кэти Молинаро, Шэйн Блейдс, Джилл Ловер, Джордж Паэс, Джастин Лонг
Описание:
Мамаша (Мамочка) – это новый ситком от Чака Лорри, автора «Теория большого взрыва», «Два с половиной человека» и «Майк и Молли» о том, как недавно завязавшая с алкоголем мать-одиночка пытается вырастить двух детей, в мире полном различных соблазнов и преград. Кристи работает официанткой в роскошном ресторане в долине Напа (это, кто не знает, центр виноделия). Её твердое решение хранить трезвость постоянно подвергается испытаниям со стороны матери, в недалеком прошлом такой же алкоголички, женатого любовника, а также начальника Гэбриэла. Компанию им составляют - вспыльчивый шеф-повар Руди, её пока не научившийся врать сын Роско, его безответственный отец и её бывший муж Бакстер, а также стремительно взрослеющая красавица-дочь Вайолет со своим бестолковым парнем Люком. Кристи пытается нащупать новый путь в жизни, несмотря на сомнительную поддержку близких и щедрые подножки судьбы.
Ссылка на предыдущие и альтернативные раздачи: http://cybertorrent.ru/forum/tracker.php?nm=Mom
Сэмпл: http://multi-up.com/1210579
Качество: WEBRip
Формат: AVI
Видео: XviD, 720x400 at 24.000 fps, ~1500 kbps avg
Аудио1: Russian, MP3, 48 kHz, 2 ch, 128 kbps
Аудио2: English, MP3, 48 kHz, 2 ch, 128 kbps
Субтитры: нет
Реклама: аудио (два раза, в начале и конце, по 12 сек.)

MediaInfo

Format : AVI
Format/Info : Audio Video Interleave
File size : 266 MiB
Duration : 21 min 22 s
Overall bit rate : 1 738 kb/s
Writing application : Lavf57.29.101
Video
ID : 0
Format : xvid
Codec ID : xvid
Duration : 21 min 22 s
Bit rate : 1 462 kb/s
Width : 720 pixels
Height : 400 pixels
Display aspect ratio : 16:9
Frame rate : 24.000 FPS
Scan type : Progressive
Bits/(Pixel*Frame) : 0.211
Stream size : 223 MiB (84%)
Audio #1
ID : 1
Format : MPEG Audio
Format version : Version 1
Format profile : Layer 3
Format settings : Joint stereo / MS Stereo
Codec ID : 55
Codec ID/Hint : MP3
Duration : 21 min 22 s
Bit rate mode : Constant
Bit rate : 128 kb/s
Channel(s) : 2 channels
Sampling rate : 48.0 kHz
Compression mode : Lossy
Stream size : 19.6 MiB (7%)
Alignment : Aligned on interleaves
Interleave, duration : 24 ms (0.58 video frame)
Interleave, preload duratio : 24 ms
Title : Gears Media
Writing library : LAME3.99.5
Audio #2
ID : 2
Format : MPEG Audio
Format version : Version 1
Format profile : Layer 3
Format settings : Joint stereo / MS Stereo
Codec ID : 55
Codec ID/Hint : MP3
Duration : 21 min 22 s
Bit rate mode : Constant
Bit rate : 128 kb/s
Channel(s) : 2 channels
Sampling rate : 48.0 kHz
Compression mode : Lossy
Stream size : 19.6 MiB (7%)
Alignment : Aligned on interleaves
Interleave, duration : 24 ms (0.58 video frame)
Interleave, preload duratio : 24 ms
Writing library : LAME3.99.

Скриншоты

Внимание! Раздача ведётся путём добавления новых серий

Внимание! Раздача ведётся путём добавления новых серий; при каждом добавлении создаётся новый торрент. Чтобы начать докачку новой серии, пользователям необходимо сделать следующее:
(1) остановить скачивание,
(2) удалить старый торрент у себя из клиента (старые серии удалять не надо),
(3) скачать новый торрент и запустить его у себя в клиенте вместо старого, при этом указать клиенту путь в старую папку куда и должно происходить скачивание новых серий.
Ваш клиент при этом должен произвести хеширование (проверку) старой папки (если не производит сам - помогите ему сделать это), и будет докачивать только те серии которых у вас ещё нет. Старые серии при этом не удаляются, а продолжают раздаваться!
Eсли вы уже удалили старые серии, то предотвратить повторную закачку старых серий можно, отжав галочку в соответствующих местах при запуске нового торрента. По возможности, желательно не удалять старые серии как можно дольше чтобы релизёр не столько продолжал раздавать старые серии, а смог сконцентрироваться на новых.
[cybertorrent.net].t2400.torrent 
Торрент: Зарегистрирован [ 2019-05-01 16:45 ] · 35D511403DA1AE9D795B3018273A132570B028BA

Скачать .torrent

Скачать

27 KB

Статус: проверено
Скачан: 0 раз
Размер: 5,11 GB
terms.php
Показать сообщения:    

Текущее время: 22-Ноя 12:54

Часовой пояс: UTC ± 0



Вы не можете начинать темы
Вы не можете отвечать на сообщения
Вы не можете редактировать свои сообщения
Вы не можете удалять свои сообщения
Вы не можете голосовать в опросах
Вы не можете прикреплять файлы к сообщениям
Вы можете скачивать файлы