Статистика раздачи
Размер:  2,35 GB   |    Зарегистрирован:  7 месяцев 10 дней   |    Скачан:  0 раз
Сидов:  12  [  0 KB/s  ]   Личеров:  2  [  0 KB/s  ]  
 
     
 
 

Гость ®

Пол:
Не указан

Соседи
Год выпуска: 2019
Производство: Мостелефильм
Жанр: комедия, мелодрама
Продолжительность: ~00:45:00 серия
Субтитры: нет
Режиссёр: Владимир Виноградов
В ролях: Евгений Сидихин, Елена Валюшкина, Владимир Тимофеев, Юлия Ауг, Константин Чепурин, Михаил Васьков, Александр Семчев, Евгений Серов, Юлия Томашевская, Константин Белошапка, Дарья Семёнова, Наталья Тетенова, Андрей Тартаков, Юлия Серина, Михаил Парыгин, Ирина Лазарева, Александр Пальчиков, Раиса Пащенко, Александр Семикопенко, Семён Фурман, Лариса Негреева-Цесляк, Вячеслав Манучаров, Любовь Зайцева, Константин Быков
Описание: Война между Кораблевыми и Ширшиковыми продолжается. Отставной пилот Олег Кораблев и бывший совхозный тракторист Николай Ширшиков погрязли во взаимных обидах и изо всех сил пытаются испортить друг другу жизнь. Жены не отстают от своих мужей. Кажется, этой войне не будет конца. Лишь появление в Колотилово нового жителя, господина Щукина в компании обворожительной жены, приводит к тому, что Кораблевы и Ширшиковы вынуждены объединиться в борьбе с общим врагом.

Реклама: Нет.
Кинопоиск
Все раздачи сериала
Sample
Качество: WEBRip - Files-x
Формат: AVI
Видео кодек: XviD
Аудио кодек: AC3
Видео: 720x400 (1.80:1), 25 fps, XviD ~1600 kbps avg, 0.222 bit/pixel
Аудио: 48.0 kHz, AC3 Dolby Digital, 2/0 (L,R) ch, ~ 192 kbps

Внимание! Раздача ведётся путём добавления новых серий

Раздача ведётся путём добавления новых серий, при каждом добавлении создаётся новый торрент. Чтобы начать докачку новой серии, пользователям необходимо сделать следующее:
- Остановить скачивание.
- Удалить старый торрент у себя из клиента (старые серии удалять не надо).
- Скачать новый торрент и запустить его у себя в клиенте вместо старого, при этом указать клиенту путь в старую папку куда и должно происходить скачивание новых серий.
Ваш клиент при этом должен произвести хеширование (проверку) старой папки (если не производит сам - помогите ему сделать это), и будет докачивать только те серии которых у вас ещё нет. Старые серии при этом не удаляются, а продолжают раздаваться!
Если вы уже удалили старые серии, то предотвратить повторную закачку старых серий можно, отжав галочку в соответствующих местах при запуске нового торрента. По возможности, желательно не удалять старые серии как можно дольше, чтобы релизер не столько продолжал раздавать старые серии, а смог сконцентрироваться на новых.

MI

General
Complete name : D:\Соседи-2. 2019.WEB-DLRip. Files-x\01. Соседи-2. 2019.WEB-DLRip. Files-x.avi
Format : AVI
Format/Info : Audio Video Interleave
File size : 586 MiB
Duration : 45 min 31 s
Overall bit rate : 1 800 kb/s
Writing application : VirtualDubMod 1.5.10.3 | www.virtualdub-fr.org || (build 2550/release)
Writing library : VirtualDubMod build 2550/release
Video
ID : 0
Format : MPEG-4 Visual
Format profile : Advanced Simple@L5
Format settings : BVOP1 / Custom Matrix
Format settings, BVOP : 1
Format settings, QPel : No
Format settings, GMC : No warppoints
Format settings, Matrix : Custom
Codec ID : XVID
Codec ID/Hint : XviD
Duration : 45 min 31 s
Bit rate : 1 598 kb/s
Width : 720 pixels
Height : 400 pixels
Display aspect ratio : 16:9
Frame rate : 25.000 FPS
Color space : YUV
Chroma subsampling : 4:2:0
Bit depth : 8 bits
Scan type : Progressive
Compression mode : Lossy
Bits/(Pixel*Frame) : 0.222
Stream size : 520 MiB (89%)
Writing library : XviD 73
Audio
ID : 1
Format : AC-3
Format/Info : Audio Coding 3
Codec ID : 2000
Duration : 45 min 31 s
Bit rate mode : Constant
Bit rate : 192 kb/s
Channel(s) : 2 channels
Channel positions : Front: L R
Sampling rate : 48.0 kHz
Frame rate : 31.250 FPS (1536 SPF)
Bit depth : 16 bits
Compression mode : Lossy
Stream size : 62.5 MiB (11%)
Alignment : Split accross interleaves
Interleave, duration : 40 ms (1.00 video frame)
Interleave, preload duratio : 500 ms
Service kind : Complete Main

Скриншоты


[cybertorrent.net].t2396.torrent 
Торрент: Зарегистрирован [ 2019-04-30 16:25 ] · CDF262A7DFDA261F66E785FD7E13DB728532EFFD

Скачать .torrent

Скачать

13 KB

Статус: проверено
Скачан: 0 раз
Размер: 2,35 GB
terms.php
Показать сообщения:    

Текущее время: 11-Дек 07:07

Часовой пояс: UTC ± 0



Вы не можете начинать темы
Вы не можете отвечать на сообщения
Вы не можете редактировать свои сообщения
Вы не можете удалять свои сообщения
Вы не можете голосовать в опросах
Вы не можете прикреплять файлы к сообщениям
Вы можете скачивать файлы