Статистика раздачи
Размер:  1,46 GB   |    Зарегистрирован:  6 месяцев 15 дней   |    Скачан:  0 раз

Полного источника не было: Никогда

 
     
 
 

serzh ®

Пол:
Не указан
Стаж:
8 месяцев 3 дня
Сообщений:
384

Голубая Сталь / Вороненая сталь / Blue Steel
Страна: США
Жанр: боевик, криминал, триллер
Год выпуска: 1989
Продолжительность: 01:42:00

Перевод: Авторский (одноголосый закадровый) Григорий Либергал
Субтитры: нет
Режиссер: Кэтрин Бигелоу / Kathryn Bigelow
В ролях: Джейми Ли Кёртис, Рон Сильвер, Клэнси Браун, Элизабет Пенья, Луиза Флетчер, Филип Боско, Кевин Данн, Ричард Дженкинс, Маркус Флэннаган
Описание: Меган работает в полиции. Однажды, во время ее ночного дежурства, поступает сигнал об ограблении небольшого магазина. Пытаясь самостоятельно задержать вооруженного преступника, Меган была вынуждена в него выстрелить. Подоспевшие на место происшествия полицейские не находят оружие, которым грабитель, со слов Меган, угрожал ей, посетителям и работникам магазина. Вскоре в городе происходит серия жестоких и бессмысленных убийств: по улицам ходит человек, расстреливающий прохожих из пистолета, который очень похож на оружие убитого грабителя. Меган догадывается, что убийца – посетитель магазина, сумевший в суматохе украсть пистолет. Но как Меган это доказать и убедить коллег проработать ее версию...?
Доп. информация: Выражаю огромную благодарность Нордеру за синхронизацию звуковой дорожки. За дорогу благодарим m.mamichev

Сэмпл: http://multi-up.com/1230816
Качество видео: BDRip (Исходник BDRemux 1080p)
Формат видео: AVI
Видео: XviD 73, 720x400, (16:9), 23,976 fps, 1597 Кбит/с, 8 бит, 0.23 bit/pixel
Аудио: Русский (АС3, 6 ch (Front: L C R, Side: L R, LFE), 48,0 KHz, 448 Kbps

MediaInfo

Общее
Полное имя : E:\Голубая Сталь (боевик, криминал 1989 год).avi
Формат : AVI
Формат/Информация : Audio Video Interleave
Размер файла : 1,46 Гбайт
Продолжительность : 1 ч. 41 м.
Общий поток : 2055 Кбит/сек
Программа кодирования : VirtualDubMod 1.5.10.2 (build 2540/release)
Библиотека кодирования : VirtualDubMod build 2540/release
Видео
Идентификатор : 0
Формат : MPEG-4 Visual
Профиль формата : Advanced Simple@L5
Параметр BVOP формата : 2
Параметр QPel формата : Нет
Параметр GMC формата : Без точки перехода
Параметр матрицы формата : Выборочная
Идентификатор кодека : XVID
Идентификатор кодека/Подсказка : XviD
Продолжительность : 1 ч. 41 м.
Битрейт : 1597 Кбит/сек
Ширина : 720 пикселей
Высота : 400 пикселей
Соотношение сторон : 16:9
Частота кадров : 23,976 (23976/1000) кадра/сек
Цветовое пространство : YUV
Субдискретизация насыщенности : 4:2:0
Битовая глубина : 8 бит
Тип развёртки : Прогрессивная
Метод сжатия : С потерями
Бит/(Пиксели*Кадры) : 0.231
Размер потока : 1,14 Гбайт (78%)
Библиотека кодирования : XviD 73
Аудио
Идентификатор : 1
Формат : AC-3
Формат/Информация : Audio Coding 3
Расширение режима : CM (complete main)
Параметр Endianness формата : Big
Идентификатор кодека : 2000
Продолжительность : 1 ч. 41 м.
Вид битрейта : Постоянный
Битрейт : 448 Кбит/сек
Каналы : 6 каналов
Расположение каналов : Front: L C R, Side: L R, LFE
Частота : 48,0 КГц
Частота кадров : 31,250 кадров/сек (1536 spf)
Метод сжатия : С потерями
Размер потока : 327 Мбайт (22%)
Выравнивание : Разделение по промежуткам
Продолжительность промежутка : 42 мс. (1,00 видеокадр)
Время предзагрузки промежутка : 500 мс.

Скриншот c названием фильма

Скриншоты

[cybertorrent.net].t2393.torrent 
Торрент: Зарегистрирован [ 2019-04-30 16:25 ] · 0BBE60521B2913C39D0884A26F9225E7C9B76953

Скачать .torrent

Скачать

15 KB

Статус: проверено
Скачан: 0 раз
Размер: 1,46 GB
terms.php
Профиль ЛС
Показать сообщения:    

Текущее время: 15-Ноя 20:50

Часовой пояс: UTC ± 0



Вы не можете начинать темы
Вы не можете отвечать на сообщения
Вы не можете редактировать свои сообщения
Вы не можете удалять свои сообщения
Вы не можете голосовать в опросах
Вы не можете прикреплять файлы к сообщениям
Вы можете скачивать файлы