Статистика раздачи
Размер:  13,13 GB   |    Зарегистрирован:  6 месяцев 16 дней   |    Скачан:  0 раз
Сидов:  29  [  0 KB/s  ]   Личеров:  12  [  0 KB/s  ]  
 
     
 
 

Гость ®

Пол:
Не указан

Смерш
Год выпуска: 2019
Производство: Star Media
Жанр: история, военный, драма
Продолжительность: ~00:45:00 серия
Субтитры: нет
Режиссёр: Олег Фомин
В ролях: Алексей Макаров, Владислав Котлярский, Олег Фомин, Леонид Громов, Николай Козак, Александр Обласов, Анатолий Гущин, Александра Богданова, Евгения Малахова, Светлана Степанковская, Денис Константинов, Дмитрий Лавров , Максим Литовченко, Михаил Дорожкин, Андрей Пискарёв, Олег Мазуров, Артём Григорьев, Алексей Овсянников, Дмитрий Первушин, Алексей Сергеев, Александр Алексеев , Ольга Веникова, Юрий Анпилогов, Сослан Фидаров, Евгений Мундум, Сергей Шарифуллин
Описание: В центре сюжета — судьба офицера Красной армии Георгия Волкова, который ведёт ожесточённую борьбу со своим заклятым врагом — агентом Абвера Конрадом фон Бютцевом. История начинается 21 июня 1941 года. Волков везёт в Советский Союз партию изумрудов по торговому договору между СССР и Германией, а также секретные документы, ценность которых выше любых драгоценных камней. Начинается война. Поезд, в котором едет Волков, захватывают немцы. Становится ясно, что ради важных агентурных сведений Бютцев готов пойти на что угодно

Реклама: Нет.
Кинопоиск
Все раздачи сериала
Sample
Качество: WEBRip 720p - ExKinoRay
Формат: MKV
Видео кодек: H.264
Аудио кодек: AC3
Видео: MPEG4 AVC Video, H264, 2.35:1, 1280x544, 25 fps, ~3200 kbps, 0.184 bit/pixel
Аудио: AC3, 48.0 kHz, 2/0 (L,R) ch, 192 kbps

MI

General
Unique ID : 247686461613944462281393622635268892282 (0xBA56AD651DC28E5680962E288045667A)
Complete name : D:\Smersh.2019.WEB-DL.(720p).ExKinoRay\Smersh.e01.2019.WEB-DL.(720p).ExKinoRay.mkv
Format : Matroska
Format version : Version 2
File size : 1.10 GiB
Duration : 45 min 29 s
Overall bit rate mode : Constant
Overall bit rate : 3 462 kb/s
Encoded date : UTC 2019-04-30 00:08:15
Writing application : mkvmerge v5.8.0 ('No Sleep / Pillow') built on Sep 2 2012 15:37:04
Writing library : libebml v1.2.3 + libmatroska v1.3.0
Video
ID : 1
Format : AVC
Format/Info : Advanced Video Codec
Format profile : High@L4.1
Format settings : CABAC / 9 Ref Frames
Format settings, CABAC : Yes
Format settings, ReFrames : 9 frames
Format settings, GOP : M=2, N=33
Codec ID : V_MPEG4/ISO/AVC
Duration : 45 min 29 s
Bit rate mode : Constant
Bit rate : 3 201 kb/s
Nominal bit rate : 3 500 kb/s
Width : 1 280 pixels
Height : 544 pixels
Display aspect ratio : 2.35:1
Frame rate mode : Constant
Frame rate : 25.000 FPS
Standard : PAL
Color space : YUV
Chroma subsampling : 4:2:0
Bit depth : 8 bits
Scan type : Progressive
Bits/(Pixel*Frame) : 0.184
Stream size : 1.02 GiB (92%)
Language : Russian
Default : Yes
Forced : No
Color range : Limited
Color primaries : BT.709
Transfer characteristics : BT.709
Matrix coefficients : BT.709
Audio
ID : 2
Format : AC-3
Format/Info : Audio Coding 3
Codec ID : A_AC3
Duration : 45 min 29 s
Bit rate mode : Constant
Bit rate : 192 kb/s
Channel(s) : 2 channels
Channel positions : Front: L R
Sampling rate : 48.0 kHz
Frame rate : 31.250 FPS (1536 SPF)
Bit depth : 16 bits
Compression mode : Lossy
Stream size : 62.5 MiB (6%)
Language : Russian
Service kind : Complete Main
Default : Yes
Forced : No

Скриншоты


[cybertorrent.net].t2388.torrent 
Торрент: Зарегистрирован [ 2019-04-30 16:25 ] · 009EB1D02BD9F5074BDD0BC5DC7CECDF4C789146

Скачать .torrent

Скачать

67 KB

Статус: проверено
Скачан: 0 раз
Размер: 13,13 GB
terms.php
Показать сообщения:    

Текущее время: 16-Ноя 21:49

Часовой пояс: UTC ± 0



Вы не можете начинать темы
Вы не можете отвечать на сообщения
Вы не можете редактировать свои сообщения
Вы не можете удалять свои сообщения
Вы не можете голосовать в опросах
Вы не можете прикреплять файлы к сообщениям
Вы можете скачивать файлы