Статистика раздачи
Размер:  20,06 GB   |    Зарегистрирован:  6 месяцев 13 дней   |    Скачан:  0 раз
Сидов:  34  [  0 KB/s  ]   Личеров:  9  [  0 KB/s  ]  
 
     
 
 

Гость ®

Пол:
Не указан

Смерш
Год выпуска: 2019
Производство: Star Media
Жанр: история, военный, драма
Продолжительность: ~00:45:00 серия
Субтитры: нет
Режиссёр: Олег Фомин
В ролях: Алексей Макаров, Владислав Котлярский, Олег Фомин, Леонид Громов, Николай Козак, Александр Обласов, Анатолий Гущин, Александра Богданова, Евгения Малахова, Светлана Степанковская, Денис Константинов, Дмитрий Лавров , Максим Литовченко, Михаил Дорожкин, Андрей Пискарёв, Олег Мазуров, Артём Григорьев, Алексей Овсянников, Дмитрий Первушин, Алексей Сергеев, Александр Алексеев , Ольга Веникова, Юрий Анпилогов, Сослан Фидаров, Евгений Мундум, Сергей Шарифуллин
Описание: В центре сюжета — судьба офицера Красной армии Георгия Волкова, который ведёт ожесточённую борьбу со своим заклятым врагом — агентом Абвера Конрадом фон Бютцевом. История начинается 21 июня 1941 года. Волков везёт в Советский Союз партию изумрудов по торговому договору между СССР и Германией, а также секретные документы, ценность которых выше любых драгоценных камней. Начинается война. Поезд, в котором едет Волков, захватывают немцы. Становится ясно, что ради важных агентурных сведений Бютцев готов пойти на что угодно

Реклама: Нет.
Кинопоиск
Все раздачи сериала
Sample
Качество: WEBRip 1080p - ExKinoRay
Формат: MKV
Видео кодек: H.264
Аудио кодек: AC3
Видео: MPEG4 AVC Video, H264, 16:9, 1920x1080, 25 fps, ~5100 kbps, 0.098 bit/pixel
Аудио: AC3, 48.0 kHz, 2/0 (L,R) ch, 192 kbps

MI

General
Unique ID : 251116798949765101051523304981269174179 (0xBCEB56155F163167AFBEB54470C9D7A3)
Complete name : D:\Smersh.2019.WEB-DL.(1080p).ExKinoRay\Smersh.(01.seriya).2019.WEB-DL.(1080p).ExKinoRay.mkv
Format : Matroska
Format version : Version 4 / Version 2
File size : 1.68 GiB
Duration : 45 min 29 s
Overall bit rate : 5 294 kb/s
Encoded date : UTC 2019-04-29 17:13:27
Writing application : mkvmerge v7.8.0 ('River Man') 32bit built on Mar 27 2015 16:18:02
Writing library : libebml v1.3.1 + libmatroska v1.4.2
Video
ID : 1
Format : AVC
Format/Info : Advanced Video Codec
Format profile : High@L4
Format settings : CABAC / 4 Ref Frames
Format settings, CABAC : Yes
Format settings, ReFrames : 4 frames
Codec ID : V_MPEG4/ISO/AVC
Duration : 45 min 29 s
Bit rate : 5 100 kb/s
Width : 1 920 pixels
Height : 1 080 pixels
Display aspect ratio : 16:9
Frame rate mode : Constant
Frame rate : 25.000 FPS
Color space : YUV
Chroma subsampling : 4:2:0
Bit depth : 8 bits
Scan type : Progressive
Bits/(Pixel*Frame) : 0.098
Stream size : 1.62 GiB (96%)
Default : Yes
Forced : No
Audio
ID : 2
Format : AC-3
Format/Info : Audio Coding 3
Codec ID : A_AC3
Duration : 45 min 29 s
Bit rate mode : Constant
Bit rate : 192 kb/s
Channel(s) : 2 channels
Channel positions : Front: L R
Sampling rate : 48.0 kHz
Frame rate : 31.250 FPS (1536 SPF)
Bit depth : 16 bits
Compression mode : Lossy
Stream size : 62.5 MiB (4%)
Language : Russian
Service kind : Complete Main
Default : Yes
Forced : No

Скриншоты


[cybertorrent.net].t2387.torrent 
Торрент: Зарегистрирован [ 2019-04-30 16:25 ] · 6DF311619E1BF4CD1E3ABCF3FF2CA300EE0CA0A3

Скачать .torrent

Скачать

102 KB

Статус: проверено
Скачан: 0 раз
Размер: 20,06 GB
terms.php
Показать сообщения:    

Текущее время: 13-Ноя 17:53

Часовой пояс: UTC ± 0



Вы не можете начинать темы
Вы не можете отвечать на сообщения
Вы не можете редактировать свои сообщения
Вы не можете удалять свои сообщения
Вы не можете голосовать в опросах
Вы не можете прикреплять файлы к сообщениям
Вы можете скачивать файлы