Статистика раздачи
Размер:  1,46 GB   |    Зарегистрирован:  6 месяцев 16 дней   |    Скачан:  0 раз
Сидов:  40  [  0 KB/s  ]   Личеров:  2  [  0 KB/s  ]  
 
     
 
 

karlll ®

Пол:
Не указан
Стаж:
8 месяцев 4 дня
Сообщений:
171

Большой злой лис и другие сказки / Le grand méchant renard et autres contes...
Страна: Франция
Жанр: мультфильм, сказка, комедия, приключения, семейный
Год выпуска: 2017
Продолжительность: 01:19:16-Перевод: Профессиональный (многоголосый закадровый) | SDI Media
Субтитры: русские, французские
Оригинальная аудиодорожка: французский-Режиссер: Патрик Имбер, Бенжамин Реннер / Patrick Imbert, Benjamin Renner-В ролях: Селин Ронте, Борис Релинже, Гийом Бушед, Гийом Дарно, Дамьен Витецка, Антуан Шумский, Жан-Луп Хорвитц, Кристоф Лемуан, Магали Розенцвейг, Камел Абдессадок-Описание: Если вы полагаете, что в сельской местности царят тишь да гладь, вы крупно ошибаетесь. На самом деле деревенская жизнь полна невероятных событий и приключений. Например, однажды пролётный аист подкидывает кролику и поросёнку ребеночка — с просьбой доставить его по адресу. В иной день лис невольно становится наседкой для троих цыплят, которые кличут его мамой и требуют заботы. А уж как дело доходит до Рождества, тут веселье охватывает всю ферму и окрестные леса.- -Качество видео: BDRip
Формат видео: AVI
Видео: 704x400 (1.76:1), 25 fps, XviD build 73 ~1853 kbps avg, 0.26 bit/pixel
Аудио 1: 48 kHz, AC3 Dolby Digital, 3/2 (L,C,R,l,r) + LFE ch, ~384 kbps | rus
Аудио 2: 48 kHz, AC3 Dolby Digital, 3/2 (L,C,R,l,r) + LFE ch, ~384 kbps | fre-[box]Сэмпл[/box]-

MediaInfo

Код:Формат : AVI
Формат/Информация : Audio Video Interleave
Размер файла : 1,46 Гбайт
Продолжительность : 1 ч. 19 м.
Общий поток : 2637 Кбит/сек
Программа кодирования : VirtualDubMod 1.5.10.3 | www.virtualdub-fr.org || (build 2550/release)
Библиотека кодирования : VirtualDubMod build 2550/release
Видео
Идентификатор : 0
Формат : MPEG-4 Visual
Профиль формата : Advanced Simple@L5
Настройки формата : BVOP1 / Custom Matrix
Параметр BVOP формата : 1
Параметр QPel формата : Нет
Параметр GMC формата : Без точки перехода
Параметр матрицы формата : Выборочная
Идентификатор кодека : XVID
Идентификатор кодека/Подсказка : XviD
Продолжительность : 1 ч. 19 м.
Битрейт : 1855 Кбит/сек
Ширина : 704 пикселя
Высота : 400 пикселей
Соотношение сторон : 16:9
Частота кадров : 25,000 кадров/сек
Цветовое пространство : YUV
Субдискретизация насыщенности : 4:2:0
Битовая глубина : 8 бит
Тип развёртки : Прогрессивная
Метод сжатия : С потерями
Бит/(Пиксели*Кадры) : 0.263
Размер потока : 1,03 Гбайт (70%)
Библиотека кодирования : XviD 73
Аудио #1
Идентификатор : 1
Формат : AC-3
Формат/Информация : Audio Coding 3
Коммерческое название : Dolby Digital
Идентификатор кодека : 2000
Продолжительность : 1 ч. 19 м.
Вид битрейта : Постоянный
Битрейт : 384 Кбит/сек
Каналы : 6 каналов
ChannelLayout : L R C LFE Ls Rs
Частота : 48,0 КГц
Частота кадров : 31,250 кадров/сек (1536 SPF)
Битовая глубина : 16 бит
Метод сжатия : С потерями
Размер потока : 218 Мбайт (15%)
Выравнивание : Разделение по промежуткам
Продолжительность промежутка : 40 мс. (1,00 видеокадр)
Время предзагрузки промежутка : 500 мс.
Заголовок : Rus
ServiceKind/String : Complete Main
Аудио #2
Идентификатор : 2
Формат : AC-3
Формат/Информация : Audio Coding 3
Коммерческое название : Dolby Digital
Идентификатор кодека : 2000
Продолжительность : 1 ч. 19 м.
Вид битрейта : Постоянный
Битрейт : 384 Кбит/сек
Каналы : 6 каналов
ChannelLayout : L R C LFE Ls Rs
Частота : 48,0 КГц
Частота кадров : 31,250 кадров/сек (1536 SPF)
Битовая глубина : 16 бит
Метод сжатия : С потерями
Размер потока : 218 Мбайт (15%)
Выравнивание : Разделение по промежуткам
Продолжительность промежутка : 40 мс. (1,00 видеокадр)
Время предзагрузки промежутка : 500 мс.
Заголовок : Fre
ServiceKind/String : Complete Main

Скриншоты


[cybertorrent.net].t2384.torrent 
Торрент: Зарегистрирован [ 2019-04-30 16:25 ] · 6A338463572584CD1C6F3BE1CB093F4DD64DCFE7

Скачать .torrent

Скачать

15 KB

Статус: проверено
Скачан: 0 раз
Размер: 1,46 GB
terms.php
Профиль ЛС
Показать сообщения:    

Текущее время: 17-Ноя 05:33

Часовой пояс: UTC ± 0



Вы не можете начинать темы
Вы не можете отвечать на сообщения
Вы не можете редактировать свои сообщения
Вы не можете удалять свои сообщения
Вы не можете голосовать в опросах
Вы не можете прикреплять файлы к сообщениям
Вы можете скачивать файлы