Статистика раздачи
Размер:  1,46 GB   |    Зарегистрирован:  6 месяцев 18 дней   |    Скачан:  0 раз

Полного источника не было: Никогда

 
     
 
 

солнышко ®

Пол:
Не указан
Стаж:
8 месяцев 6 дней
Сообщений:
565

Девица / Damsel
Страна: США
Жанр: драма, комедия, вестерн
Год выпуска: 2018
Продолжительность: 01:48:25-Перевод: Профессиональный (многоголосый закадровый) | Tunes
Субтитры: нет
Оригинальная аудиодорожка: нет-Режиссер: Дэвид Зеллнер / David Zellner, Нэйтан Зеллнер / Nathan Zellner-В ролях: Роберт Паттинсон, Миа Васиковска, Дэвид Зеллнер, Нэйтан Зеллнер, Роберт Форстер, Джозеф Биллинджир, Морган Ланд, Рэй Келлехер, Робин Адамс, Гэри Брукинс-Описание: Действие фильма разворачивается на Диком Западе в 1870 году. Молодой Самуэль Алебастр, богатый первопроходец, отправляется в отважное путешествие, чтобы жениться на прекрасной Пенелопе, любви всей своей жизни. В дороге компанию ему составляет пьяница Парсон Генри, выдающий себя за священника и миниатюрная лошадь по кличке Ириска. По мере того, как группа пересекает Дикий Запад, простое, на первый взгляд, путешествие становится более коварным и запутанным, демонстрируя непредсказуемость человеческих чувств и размывая границы между героем, злодеем и девицей.- -Качество видео: WEB-DLRip
Формат видео: AVI
Видео: 720x304 (2.37:1), 25 fps, XviD build 73 ~1528 kbps avg, 0.28 bit/pixel
Аудио: 48 kHz, AC3 Dolby Digital, 3/2 (L,C,R,l,r) + LFE ch, ~384 kbps-[box]Сэмпл[/box]-

MediaInfo

Код:Формат : AVI
Формат/Информация : Audio Video Interleave
Размер файла : 1,46 Гбайт
Продолжительность : 1 ч. 48 м.
Общий поток : 1922 Кбит/сек
Название фильма : Девица_2018_WEB-DLRip
Программа кодирования : VirtualDubMod 1.5.10.3 | www.virtualdub-fr.org || (build 2550/release) VirtualDubMod build 2550/release
Авторское право : порошков
Видео
Идентификатор : 0
Формат : MPEG-4 Visual
Профиль формата : Advanced Simple@L5
Настройки формата : BVOP1 / Custom Matrix
Параметр BVOP формата : 1
Параметр QPel формата : Нет
Параметр GMC формата : Без точки перехода
Параметр матрицы формата : Выборочная
Идентификатор кодека : XVID
Идентификатор кодека/Подсказка : XviD
Продолжительность : 1 ч. 48 м.
Битрейт : 1529 Кбит/сек
Ширина : 720 пикселей
Высота : 304 пикселя
Соотношение сторон : 2,35:1
Частота кадров : 25,000 кадров/сек
Цветовое пространство : YUV
Субдискретизация насыщенности : 4:2:0
Битовая глубина : 8 бит
Тип развёртки : Прогрессивная
Метод сжатия : С потерями
Бит/(Пиксели*Кадры) : 0.279
Размер потока : 1,16 Гбайт (80%)
Библиотека кодирования : XviD 73
Аудио
Идентификатор : 1
Формат : AC-3
Формат/Информация : Audio Coding 3
Коммерческое название : Dolby Digital
Идентификатор кодека : 2000
Продолжительность : 1 ч. 48 м.
Вид битрейта : Постоянный
Битрейт : 384 Кбит/сек
Каналы : 6 каналов
ChannelLayout : L R C LFE Ls Rs
Частота : 48,0 КГц
Частота кадров : 31,250 кадров/сек (1536 SPF)
Битовая глубина : 16 бит
Метод сжатия : С потерями
Размер потока : 298 Мбайт (20%)
Выравнивание : Разделение по промежуткам
Продолжительность промежутка : 40 мс. (1,00 видеокадр)
Время предзагрузки промежутка : 500 мс.
Язык : Русский
ServiceKind/String : Complete Main

Скриншоты


[cybertorrent.net].t2382.torrent 
Торрент: Зарегистрирован [ 2019-04-30 16:25 ] · 8B4DC813BF7DC60620BAD2D521B7A801C86A8064

Скачать .torrent

Скачать

15 KB

Статус: проверено
Скачан: 0 раз
Размер: 1,46 GB
terms.php
Профиль ЛС
Показать сообщения:    

Текущее время: 19-Ноя 03:48

Часовой пояс: UTC ± 0



Вы не можете начинать темы
Вы не можете отвечать на сообщения
Вы не можете редактировать свои сообщения
Вы не можете удалять свои сообщения
Вы не можете голосовать в опросах
Вы не можете прикреплять файлы к сообщениям
Вы можете скачивать файлы