caca satrip avi x mbhttp screenshotcomparison com comparison мои раздачи на рутрекере http cybertorrent ru forum tracker php?rid= " /> Красавица (Арунас Жебрюнас) [1969, Kиноповесть, семейный, SATRip] Dub (к/с "Мосфильм") + Original Lit : Найдётся всё!
Статистика раздачи
Размер:  705 MB   |    Зарегистрирован:  1 год 1 месяц   |    Скачан:  0 раз
DL-List: Нет

Полного источника не было: 5 месяцев 28 дней

 
     
 
 

Гость ®

Пол:
Не указан

Красавица / Gražuolė
Жанр: Kиноповесть, семейный
Страна: CCCP
Студия: Литовская киностудия
Год выпуска: 1969
Продолжительность: 01:03:41
Перевод: Советский дубляж - к/с "Мосфильм"
Оригинальная аудиодорожка: литовский
Режиссёр: Арунас Жебрюнас / Arūnas Žebriūnas
В ролях:
Инга Мицките / Inga Mickytė ... Инга - дублировала В.Астрейко
Лилиана Жадейките / Lilija Žadeikytė ... мать Инги - дублировала Майя Булгакова
Сергей Мартинсон ... одинокий дедушка с палочкой
Таурас Рагалявичюс / Tauras Ragalevičius ... новенький
Арвидас Самукас / Arvidas Samukas ... Викторас
Ауксе Кокштайте / Auksė Kokštaitė ...
Вайва Рагаускайте / Vaiva Ragauskaitė ...
Вайдевутис Мицкис / Vajdevutis Mickis ...
Нийоле Лепешкайте / Nijole Lepeškaitė … продавщица цветочной оранжереи
Гедиминас Гирдвайнис / Gedininas Girdvainis
Гражина Байкштите / Gražina Baikštitė ...
Владас Юркунас / Vladas Jurkūnas ... хромой с лестницей
Описание: Во дворе старого района города играют дети. Эти игры понятны только самим детям. Одна такая игра называется "Красавица".
Некрасивую девочку Ингу все любят и, играя, всегда выбирают «красавицей». И это справедливо —она самая добрая и сияющая девочка в большой детской компании. И только один мальчик откровенно говорит ей, что она некрасива. Он поселился в доме недавно и, получив прозвище Немой, не желает признавать непонятные правила игры
В те годы, фильм "Красавица" был и хвален и критикован за непонятные вещи, например "мутную концепцию фильма". Как часто бывало, концепция у А.Жебрюнаса явно поэтическая. Старый, добрый фильм о детстве и не только о нём...
Дополнительная информация: Релиз:
Исходник найден в сети.
Автор рипа: pmv
Большое спасибо за:
- предоставленную запись с литовского телеканала LRT HD Saulius Kintera / Luxembourg /
- помощь в подготовке релиза - trecioka
- синхронизацию аудиодорожки с советским дубляжем - pmv
* Фильм дублирован на киностудии «Мосфильм» в 1970 году.
Роли дублировали: Майя Булгакова, В.Астрейко, Иван Рыжов … дедушка, продавец метёлок
* Премьера (СССР): 9 ноября 1970 (Москва), февраль 1970 (Литва), 20 апреля 2018 (Россия, Московский Международный кинофестиваль)
Премьера (мир): 25 июля 2015 (Польша, Международный кинофестиваль "Новые горизонты")
Сценарист: Юрий Яковлев
Оператор: Альгимантас Моцкус
Композитор: Вячеслав Ганелин
* Награды и номинации:
4 Всесоюзный кинофестиваль (Минск), 1970 год
- Премия оператору А.Моцкусу
IMDb = 7,5/10 (210) - http://www.imdb.com/title/tt1272016/
Кинопоиск = 7.365 (87) - https://www.kinopoisk.ru/film/429752/
ПРОСЬБА к СКАЧАВШИМ. НЕ УХОДИТЕ С РАЗДАЧИ, ПОМОГИТЕ ДРУГИМ СКАЧАТЬ!!!
Семпл: http://multi-up.com/1230594
Качество видео: SATRip
Формат видео: AVI
Видео: 720x304 (2.37:1), 25 fps, XviD build 73 ~1148 kbps avg, 0.21 bit/pixel
Аудио: 48 kHz, AC3 Dolby Digital, 2/0 (L,R) ch, ~192.00 kbps avg – советский дубляж

MediaInfo

General
Complete name : D:\torrents\Красавица (1969, рус_дубл+лит.).avi
Format : AVI
Format/Info : Audio Video Interleave
File size : 705 MiB
Duration : 1 h 3 min
Overall bit rate : 1 548 kb/s
Writing application : VirtualDubMod 1.5.10.3 | www.virtualdub-fr.org || (build 2550/release)
Writing library : VirtualDubMod build 2550/release
Video
ID : 0
Format : MPEG-4 Visual
Format profile : Advanced Simple@L5
Format settings, BVOP : 2
Format settings, QPel : No
Format settings, GMC : No warppoints
Format settings, Matrix : Default (H.263)
Codec ID : XVID
Codec ID/Hint : XviD
Duration : 1 h 3 min
Bit rate : 1 150 kb/s
Width : 720 pixels
Height : 304 pixels
Display aspect ratio : 2.35:1
Frame rate : 25.000 FPS
Color space : YUV
Chroma subsampling : 4:2:0
Bit depth : 8 bits
Scan type : Progressive
Compression mode : Lossy
Bits/(Pixel*Frame) : 0.210
Stream size : 524 MiB (74%)
Writing library : XviD 73
Audio #1
ID : 1
Format : AC-3
Format/Info : Audio Coding 3
Format settings, Endianness : Big
Codec ID : 2000
Duration : 1 h 3 min
Bit rate mode : Constant
Bit rate : 192 kb/s
Channel(s) : 2 channels
Channel positions : Front: L R
Sampling rate : 48.0 kHz
Frame rate : 31.250 FPS (1536 SPF)
Bit depth : 16 bits
Compression mode : Lossy
Stream size : 87.5 MiB (12%)
Alignment : Split accross interleaves
Interleave, duration : 40 ms (1.00 video frame)
Interleave, preload duration : 500 ms
Service kind : Complete Main
Audio #2
ID : 2
Format : AC-3
Format/Info : Audio Coding 3
Format settings, Endianness : Big
Codec ID : 2000
Duration : 1 h 3 min
Bit rate mode : Constant
Bit rate : 192 kb/s
Channel(s) : 2 channels
Channel positions : Front: L R
Sampling rate : 48.0 kHz
Frame rate : 31.250 FPS (1536 SPF)
Bit depth : 16 bits
Compression mode : Lossy
Delay relative to video : 24 ms
Stream size : 87.5 MiB (12%)
Alignment : Split accross interleaves
Interleave, duration : 40 ms (1.00 video frame)
Interleave, preload duration : 500 ms
Service kind : Complete Main

Сравнение с раздачей жук_короед от 05-Мая-2009

http://cybertorrent.ru/forum/viewtopic.php?t=1818233
жук_короед, DVDRip, AVI, 704x320, 747.6 MB < > CaCa48, SATRip, AVI, 720x304, 705.4 MB
http://screenshotcomparison.com/comparison/134812
МОИ РАЗДАЧИ НА РУТРЕКЕРЕ: http://cybertorrent.ru/forum/tracker.php?rid=27390064
[cybertorrent.net].t2376.torrent 
Торрент: Зарегистрирован [ 2019-04-30 16:25 ] · FA4794CAE4F0522380C028613F43CDB4FD282BDA

Скачать .torrent

Скачать

14 KB

Статус: проверено
Скачан: 0 раз
Размер: 705 MB  ·  Тип торрента
terms.php
Показать сообщения:    

Текущее время: 04-Июн 21:44

Часовой пояс: UTC ± 0



Вы не можете начинать темы
Вы не можете отвечать на сообщения
Вы не можете редактировать свои сообщения
Вы не можете удалять свои сообщения
Вы не можете голосовать в опросах
Вы не можете прикреплять файлы к сообщениям
Вы можете скачивать файлы