Статистика раздачи
Размер:  2,14 GB   |    Зарегистрирован:  6 месяцев 15 дней   |    Скачан:  0 раз

Полного источника не было: Никогда

 
     
 
 

serzh ®

Пол:
Не указан
Стаж:
8 месяцев 3 дня
Сообщений:
384

КRАСНАЯ ЖАRА / ЯED HEAT
Страна: США
Жанр: боевик
Год выпуска: 1988
Продолжительность: 01:44:21
Перевод: Одноголосый закадровый студии Святослав
Субтитры: английские, русские
Оригинальная аудиодорожка: английский
Режиссер: Уолтер Хилл /Walter Hill/
В ролях: Арнольд Шварценеггер /Arnold Schwarzenegger/, Джеймс Белуши /James Belushi/, Питер Бойл /Peter Boyle/, Джина Гершон /Gina Gershon/, Эд О'Росс /Ed O'Ross/, Олег Видов /Oleg Vidov/, Лоуренс Фишберн /Laurence Fishburne/, Савелий Крамаров...
Рецензия Михаила Иванова: Наш отечественный милиционер (Шварценеггер) в поисках опасного бандита, торговца наркотиками, едет в Чикаго, где его партнером становится разбитной весельчак из местной полиции (Белуши). Вместе они воплощают на экране все отличительные качества жанра боевика. Примечательно, что впервые американцам было разрешено снимать в Москве на Красной площади.
Доп. информация: исходник от G-Killah; перевод Святослава оцифровал с древней Hitachi-195hr и подготовил karlll
Качество видео: BDRip-AVC ~СЭМПЛ~
Формат видео: MKV
Видео: MPEG4 Video (H264) 1152x648 23.976fps 2553Kbps
Аудио 1: Dolby AC3 48KHz 2ch 192Kbps - р
Аудио 2: Dolby AC3 48KHz 2ch 192Kbps - а
Формат субтитров: softsub (SRT)

MediaInfo

Format : Matroska
Format version : Version 2
File size : 2.14 GiB
Duration : 1 h 44 min
Overall bit rate : 2 939 kb/s
Movie name : ЯED HEAT_1988_BDRIP_СВЯТОСЛАВ_ENG_KBC
Encoded date : UTC 2019-04-27 13:54:52
Writing application : mkvmerge v6.9.1 ('Blue Panther') 32bit built on Apr 18 2014 18:15:44
Writing library : libebml v1.3.0 + libmatroska v1.4.1
Video
ID : 1
Format : AVC
Format/Info : Advanced Video Codec
Format profile : High@L3.1
Format settings : CABAC / 7 Ref Frames
Format settings, CABAC : Yes
Format settings, RefFrames : 7 frames
Codec ID : V_MPEG4/ISO/AVC
Duration : 1 h 44 min
Bit rate : 2 553 kb/s
Width : 1 152 pixels
Height : 648 pixels
Display aspect ratio : 16:9
Frame rate mode : Constant
Frame rate : 23.976 (24000/1001) FPS
Color space : YUV
Chroma subsampling : 4:2:0
Bit depth : 8 bits
Scan type : Progressive
Bits/(Pixel*Frame) : 0.143
Stream size : 1.82 GiB (85%)
Title : ЯED HEAT_1988
Writing library : x264 core 152 r2851kMod ba24899
Encoding settings : cabac=1 / ref=7 / deblock=1:-1:-1 / analyse=0x3:0x113 / me=umh / subme=9 / psy=1 / fade_compensate=0.00 / psy_rd=1.00:0.20 / mixed_ref=1 / me_range=24 / chroma_me=1 / trellis=2 / 8x8dct=1 / cqm=0 / deadzone=21,11 / fast_pskip=0 / chroma_qp_offset=-3 / threads=6 / lookahead_threads=1 / sliced_threads=0 / nr=0 / decimate=0 / interlaced=0 / bluray_compat=0 / constrained_intra=0 / bframes=7 / b_pyramid=2 / b_adapt=2 / b_bias=0 / direct=3 / weightb=1 / open_gop=0 / weightp=2 / keyint=250 / keyint_min=23 / scenecut=40 / intra_refresh=0 / rc_lookahead=50 / rc=2pass / mbtree=1 / bitrate=2553 / ratetol=1.0 / qcomp=0.60 / qpmin=0 / qpmax=69 / qpstep=4 / cplxblur=20.0 / qblur=0.5 / vbv_maxrate=14000 / vbv_bufsize=14000 / nal_hrd=none / filler=0 / ip_ratio=1.40 / aq=1:1.00
Language : English
Default : Yes
Forced : No
Audio #1
ID : 2
Format : AC-3
Format/Info : Audio Coding 3
Commercial name : Dolby Digital
Codec ID : A_AC3
Duration : 1 h 44 min
Bit rate mode : Constant
Bit rate : 192 kb/s
Channel(s) : 2 channels
Channel layout : L R
Sampling rate : 48.0 kHz
Frame rate : 31.250 FPS (1536 SPF)
Bit depth : 16 bits
Compression mode : Lossy
Stream size : 143 MiB (7%)
Title : Святослав
Language : Russian
Service kind : Complete Main
Default : Yes
Forced : No
Audio #2
ID : 3
Format : AC-3
Format/Info : Audio Coding 3
Commercial name : Dolby Digital
Codec ID : A_AC3
Duration : 1 h 44 min
Bit rate mode : Constant
Bit rate : 192 kb/s
Channel(s) : 2 channels
Channel layout : L R
Sampling rate : 48.0 kHz
Frame rate : 31.250 FPS (1536 SPF)
Bit depth : 16 bits
Compression mode : Lossy
Stream size : 143 MiB (7%)
Title : English
Language : English
Service kind : Complete Main
Default : No
Forced : No
Text #1
ID : 4
Format : UTF-8
Codec ID : S_TEXT/UTF8
Codec ID/Info : UTF-8 Plain Text
Title : eng
Language : English
Default : No
Forced : No
Text #2
ID : 5
Format : UTF-8
Codec ID : S_TEXT/UTF8
Codec ID/Info : UTF-8 Plain Text
Title : рус1
Language : Russian
Default : No
Forced : No
Text #3
ID : 6
Format : UTF-8
Codec ID : S_TEXT/UTF8
Codec ID/Info : UTF-8 Plain Text
Title : рус2
Language : Russian
Default : No
Forced : No
Menu
00:00:00.000 : en:00:00:00.000
00:05:10.435 : en:00:05:10.435
00:14:53.226 : en:00:14:53.226
00:19:45.393 : en:00:19:45.393
00:25:35.075 : en:00:25:35.075
00:30:29.661 : en:00:30:29.661
00:39:35.331 : en:00:39:35.331
00:43:38.533 : en:00:43:38.533
00:50:14.345 : en:00:50:14.345
00:55:11.391 : en:00:55:11.391
00:59:50.086 : en:00:59:50.086
01:07:11.819 : en:01:07:11.819
01:14:39.892 : en:01:14:39.892
01:19:44.321 : en:01:19:44.321
01:27:43.842 : en:01:27:43.842
01:37:54.535 : en:01:37:54.535

Скриншоты

[cybertorrent.net].t2375.torrent 
Торрент: Зарегистрирован [ 2019-04-30 16:25 ] · 4A846C715C885B297D21B720AB7484610FBEA467

Скачать .torrent

Скачать

11 KB

Статус: проверено
Скачан: 0 раз
Размер: 2,14 GB
terms.php
Профиль ЛС
Показать сообщения:    

Текущее время: 15-Ноя 18:23

Часовой пояс: UTC ± 0



Вы не можете начинать темы
Вы не можете отвечать на сообщения
Вы не можете редактировать свои сообщения
Вы не можете удалять свои сообщения
Вы не можете голосовать в опросах
Вы не можете прикреплять файлы к сообщениям
Вы можете скачивать файлы