Статистика раздачи
Качаю: [ 1 ]
Скачал: [ 1 ]
 
     
 
 

MAGNAT ®

Пол:
Мужской
Стаж:
2 года 5 месяцев
Сообщений:
10823

Откуда: Москва

Круиз по джунглям / Jungle Cruise
Страна: США
Жанр: приключения, комедия, фэнтези
Год выпуска: 2021
Продолжительность: 02:07:18
Перевод: Профессиональный (дублированный) (Line)
Субтитры: русские, английские (Full, Forced)
Оригинальная аудиодорожка: английский
Режиссер: Жауме Кольет-Серра / Jaume Collet-Serra
В ролях: Эмили Блант, Дуэйн Джонсон, Эдгар Рамирес, Джек Уайтхолл, Джесси Племонс, Пол Джаматти, Вероника Фалькон, Энди Найман, Филипп Максимилиан, Дэни Ровира
Описание: Отважная исследовательница дикой природы Лили Хоутон намерена отправиться в верховья Амазонки, чтобы найти легендарное дерево, которое – согласно преданиям южноамериканских индейских племен – обладает магическими целебными свойствами. Сопровождать Лили будут её утонченный брат Макгрегор и бесшабашный капитан круизного пароходика Фрэнк. В дебрях джунглей путников будут подстерегать не только смертельно опасные представители амазонской флоры и фауны, но и ловушки,подстроенные участниками конкурирующей экспедициии даже встречи со сверхъестественным.-Качество видео: WEB-DLRip
Формат видео: AVI
Видео: 720x304 (2.35:1), 23.976 fps, XviD ~ 1860 kbps avg, 0.354 bit/pixel
Аудио 1: 48 kHz, AC3 Dolby Digital, 2.0 ch, ~ 192 kbps .Rus
Аудио 2: 48 kHz, AC3 Dolby Digital, 5.1 ch, ~ 384 kbps .Eng
Формат субтитров: softsub (SRT)

MediaInfo

General
Complete name : Jungle.Cruise.2021.WEB-DLRip.avi
Format : AVI
Format/Info : Audio Video Interleave
Format profile : OpenDML
File size : 2.18 GiB
Duration : 2h 7mn
Overall bit rate : 2 454 Kbps
Writing application : VirtualDubMod 1.5.10.3 | www.virtualdub-fr.org || (build 2550/release)
Writing library : VirtualDubMod build 2550/release
Video
ID : 0
Format : MPEG-4 Visual
Format profile : Advanced Simple@L5
Format settings, BVOP : 1
Format settings, QPel : No
Format settings, GMC : No warppoints
Format settings, Matrix : Default (MPEG)
Codec ID : XVID
Codec ID/Hint : XviD
Duration : 2h 7mn
Bit rate : 1 860 Kbps
Width : 720 pixels
Height : 304 pixels
Display aspect ratio : 2.35:1
Frame rate : 23.976 fps
Color space : YUV
Chroma subsampling : 4:2:0
Bit depth : 8 bits
Scan type : Progressive
Compression mode : Lossy
Bits/(Pixel*Frame) : 0.354
Stream size : 1.65 GiB (76%)
Writing library : XviD 73
Audio #1
ID : 1
Format : AC-3
Format/Info : Audio Coding 3
Mode extension : CM (complete main)
Format settings, Endianness : Big
Codec ID : 2000
Duration : 2h 7mn
Bit rate mode : Constant
Bit rate : 192 Kbps
Channel(s) : 2 channels
Channel positions : Front: L R
Sampling rate : 48.0 KHz
Bit depth : 16 bits
Compression mode : Lossy
Stream size : 175 MiB (8%)
Alignment : Split accross interleaves
Interleave, duration : 42 ms (1.00 video frame)
Interleave, preload duration : 500 ms
Audio #2
ID : 2
Format : AC-3
Format/Info : Audio Coding 3
Mode extension : CM (complete main)
Format settings, Endianness : Big
Codec ID : 2000
Duration : 2h 7mn
Bit rate mode : Constant
Bit rate : 384 Kbps
Channel(s) : 6 channels
Channel positions : Front: L C R, Side: L R, LFE
Sampling rate : 48.0 KHz
Bit depth : 16 bits
Compression mode : Lossy
Stream size : 350 MiB (16%)
Alignment : Split accross interleaves
Interleave, duration : 42 ms (1.00 video frame)
Interleave, preload duration : 500 ms

Скриншот c названием фильма

Профиль [ЛС]
Показать сообщения:    

Текущее время: 25-Сен 23:42

Часовой пояс: UTC ± 0



Вы не можете начинать темы
Вы не можете отвечать на сообщения
Вы не можете редактировать свои сообщения
Вы не можете удалять свои сообщения
Вы не можете голосовать в опросах
Вы не можете прикреплять файлы к сообщениям
Вы не можете скачивать файлы