Статистика раздачи
Скачал: [ 1 ]
 
     
 
 

MAGNAT ®

Пол:
Мужской
Стаж:
2 года 5 месяцев
Сообщений:
10823

Откуда: Москва

Охотник за разумом. Схватка / No Man of God Страна: США
Жанр: драма, криминальный, детектив, биографический
Год выпуска: 2021
Продолжительность: 01:40:21
Перевод: Профессиональный (дублированный) (Line) (со вставками Pazl Voice)
Субтитры: английские
Оригинальная аудиодорожка: английский
Режиссер: Эмбер Роуз Сили / Amber Rose Sealey
В ролях: Элайджа Вуд, Люк Кирби, У. Эрл Браун, Роберт Патрик, Алекса Палладино, Кристиан Клименсон, Мак Брандт, Хьюго Армстронг, Эмили Берри, Уилл Харрис
Описание: Аналитик ФБР Билл Хагмайер в рамках нового исследования поведения серийных убийц проводит ряд интервью с Тедом Банди, который убил более 20 женщин. Харизматичная натура преступника начинает искажать восприятие агента. С каждой встречей ему всю сложнее оставаться объективным и не поддаваться очарованию Банди.-Видео исходник: No.Man.of.God.2021.1080p.AMZN.WEBRip.DDP5.1.x264-NOGRP
Качество видео: WEB-DLRip
Формат видео: AVI
Видео: 720x304 (2.35:1),23.976 fps, XviD ~ 1693 kbps avg, 0.323 bit/pixel
Аудио 1: 48 kHz, AC3 Dolby Digital, 2,0 ch, ~ 192 kbps .Rus
Аудио 2: 48 kHz, AC3 Dolby Digital, 2,0 ch, ~ 192 kbps .Eng
Формат субтитров: softsub (SRT)

MediaInfo

General
Complete name : No.Man.of.God.2021.WEB-DLRip.avi
Format : AVI
Format/Info : Audio Video Interleave
File size : 1.47 GiB
Duration : 1h 40mn
Overall bit rate : 2 091 Kbps
Writing application : VirtualDubMod 1.5.10.3 | www.virtualdub-fr.org || (build 2550/release)
Writing library : VirtualDubMod build 2550/release
Video
ID : 0
Format : MPEG-4 Visual
Format profile : Advanced Simple@L5
Format settings, BVOP : 1
Format settings, QPel : No
Format settings, GMC : No warppoints
Format settings, Matrix : Default (MPEG)
Codec ID : XVID
Codec ID/Hint : XviD
Duration : 1h 40mn
Bit rate : 1 693 Kbps
Width : 720 pixels
Height : 304 pixels
Display aspect ratio : 2.35:1
Frame rate : 23.976 fps
Color space : YUV
Chroma subsampling : 4:2:0
Bit depth : 8 bits
Scan type : Progressive
Compression mode : Lossy
Bits/(Pixel*Frame) : 0.323
Stream size : 1.19 GiB (81%)
Writing library : XviD 73
Audio #1
ID : 1
Format : AC-3
Format/Info : Audio Coding 3
Mode extension : CM (complete main)
Format settings, Endianness : Big
Codec ID : 2000
Duration : 1h 40mn
Bit rate mode : Constant
Bit rate : 192 Kbps
Channel(s) : 2 channels
Channel positions : Front: L R
Sampling rate : 48.0 KHz
Bit depth : 16 bits
Compression mode : Lossy
Stream size : 138 MiB (9%)
Alignment : Split accross interleaves
Interleave, duration : 42 ms (1.00 video frame)
Interleave, preload duration : 500 ms
Audio #2
ID : 2
Format : AC-3
Format/Info : Audio Coding 3
Mode extension : CM (complete main)
Format settings, Endianness : Big
Codec ID : 2000
Duration : 1h 40mn
Bit rate mode : Constant
Bit rate : 192 Kbps
Channel(s) : 2 channels
Channel positions : Front: L R
Sampling rate : 48.0 KHz
Bit depth : 16 bits
Compression mode : Lossy
Stream size : 138 MiB (9%)
Alignment : Split accross interleaves
Interleave, duration : 42 ms (1.00 video frame)
Interleave, preload duration : 500 ms

Скриншот c названием фильма

Профиль [ЛС]
Показать сообщения:    

Текущее время: 26-Сен 00:44

Часовой пояс: UTC ± 0



Вы не можете начинать темы
Вы не можете отвечать на сообщения
Вы не можете редактировать свои сообщения
Вы не можете удалять свои сообщения
Вы не можете голосовать в опросах
Вы не можете прикреплять файлы к сообщениям
Вы не можете скачивать файлы