Статистика раздачи
Нет
 
     
 
 

K15 ®

Пол:
Мужской
Стаж:
1 год 8 месяцев
Сообщений:
508

Год выпуска: 2021
Выпущено: США, Align, Culmination Productions, Digital Ignition Entertainment
Жанр: Боевик, драма, мелодрама, комедия, криминал
Продолжительность: 01:32:17
Перевод: Дублированный (iTunes)
Режиссер: Коллин Шиффли
В ролях: Диего Бонета, Александра Даддарио, Трэвис Фиммел, Джастин Чатвин, Вэйд Аллен-Маркус, Эммануэль Шрики, Никола Коррейя-Дамуд, Джон Ралстон, Мишель Нолден, Стюарт Хьюз
О фильме: Молодой бунтарь Бен, наследник знаменитой медиаимперии в Нью-Йорке, влюбляется в дочь заклятого врага своего отца.

Качество: HDRip-AVC
Видео: MPEG-4 AVC, 2347 Кбит/с, 1024x428
Аудио 1: AC3, 6 ch, 384 Кбит/с
Субтитры: Английские

Скриншоты

Инфо

x264 info: frame I:1159 Avg QP:12.20 size: 84254
x264 info: frame P:29105 Avg QP:15.38 size: 27074
x264 info: frame B:102481 Avg QP:16.89 size: 7144-Общее
Уникальный идентификатор : 117017130804523223433606088015431983911 (0x5808ADFBB9A348BA94439EC0D6F5E327)
Полное имя : E:TorrentsDie.in.a.Gunfight.2021.HDRip-AVC_JNS82.mkv
Формат : Matroska
Версия формата : Version 4
Размер файла : 1,76 Гбайт
Продолжительность : 1 ч. 32 м.
Общий поток : 2 723 Кбит/сек
Название фильма : Die.in.a.Gunfight.2021.HDRip-AVC_JNS82
Дата кодирования : UTC 2021-08-30 10:12:00
Программа кодирования : mkvmerge v59.0.0 ('Shining Star') 64-bit
Библиотека кодирования : libebml v1.4.2 + libmatroska v1.6.4
Видео
Идентификатор : 1
Формат : AVC
Формат/Информация : Advanced Video Codec
Профиль формата : High@L4.1
Настройки формата : CABAC / 11 Ref Frames
Параметр CABAC формата : Да
Параметр RefFrames формата : 11 кадров
Идентификатор кодека : V_MPEG4/ISO/AVC
Продолжительность : 1 ч. 32 м.
Битрейт : 2 347 Кбит/сек
Ширина : 1 024 пикселя
Высота : 428 пикселей
Соотношение сторон : 2,40:1
Режим частоты кадров : Постоянный
Частота кадров : 23,976 (24000/1001) кадра/сек
Цветовое пространство : YUV
Субдискретизация насыщенности : 4:2:0
Битовая глубина : 8 бит
Тип развёртки : Прогрессивная
Бит/(Пиксели*Кадры) : 0.223
Размер потока : 1,51 Гбайт (86%)
Библиотека кодирования : x264 core 157 r2958 57baac4
Настройки программы : cabac=1 / ref=11 / deblock=1:-3:-3 / analyse=0x3:0x113 / me=umh / subme=11 / psy=1 / psy_rd=1.00:0.05 / mixed_ref=1 / me_range=32 / chroma_me=1 / trellis=2 / 8x8dct=1 / cqm=0 / deadzone=21,11 / fast_pskip=0 / chroma_qp_offset=-3 / threads=8 / lookahead_threads=2 / sliced_threads=0 / nr=0 / decimate=0 / interlaced=0 / bluray_compat=0 / constrained_intra=0 / bframes=11 / b_pyramid=2 / b_adapt=2 / b_bias=0 / direct=3 / weightb=1 / open_gop=0 / weightp=2 / keyint=240 / keyint_min=24 / scenecut=40 / intra_refresh=0 / rc=2pass / mbtree=0 / bitrate=2347 / ratetol=1.0 / qcomp=0.60 / qpmin=0 / qpmax=69 / qpstep=4 / cplxblur=20.0 / qblur=0.5 / ip_ratio=1.40 / pb_ratio=1.30 / aq=1:1.00
Язык : English
Default : Да
Forced : Нет
Цветовой диапазон : Limited
Основные цвета : BT.709
Характеристики трансфера : BT.709
Коэффициенты матрицы : BT.709
Аудио
Идентификатор : 2
Формат : AC-3
Формат/Информация : Audio Coding 3
Коммерческое название : Dolby Digital
Идентификатор кодека : A_AC3
Продолжительность : 1 ч. 32 м.
Вид битрейта : Постоянный
Битрейт : 384 Кбит/сек
Каналы : 6 каналов
Channel layout : L R C LFE Ls Rs
Частота : 48,0 КГц
Частота кадров : 31,250 кадров/сек (1536 SPF)
Метод сжатия : С потерями
Размер потока : 253 Мбайт (14%)
Заголовок : iTunes
Язык : Russian
Service kind : Complete Main
Default : Да
Forced : Нет
Текст
Идентификатор : 3
Формат : UTF-8
Идентификатор кодека : S_TEXT/UTF8
Идентификатор кодека/Информация : UTF-8 Plain Text
Продолжительность : 1 ч. 29 м.
Битрейт : 59 бит/сек
Count of elements : 1110
Размер потока : 38,6 Кбайт (0%)
Язык : English
Default : Нет
Forced : Нет
Меню
00:00:00.000 : :Chapter 01
00:03:25.664 : :Chapter 02
00:13:18.631 : :Chapter 03
00:16:12.638 : :Chapter 04
00:24:09.281 : :Chapter 05
00:28:33.170 : :Chapter 06
00:35:19.993 : :Chapter 07
00:38:37.899 : :Chapter 08
00:44:13.109 : :Chapter 09
00:47:35.186 : :Chapter 10
00:55:41.463 : :Chapter 11
00:58:39.725 : :Chapter 12
01:02:52.477 : :Chapter 13
01:08:55.798 : :Chapter 14
01:13:28.362 : :Chapter 15
01:22:39.163 : :Chapter 16
Профиль [ЛС]
Показать сообщения:    

Текущее время: 26-Сен 00:59

Часовой пояс: UTC ± 0



Вы не можете начинать темы
Вы не можете отвечать на сообщения
Вы не можете редактировать свои сообщения
Вы не можете удалять свои сообщения
Вы не можете голосовать в опросах
Вы не можете прикреплять файлы к сообщениям
Вы не можете скачивать файлы