Статистика раздачи
Нет
 
     
 
 

MAGNAT ®

Пол:
Мужской
Стаж:
2 года 5 месяцев
Сообщений:
10823

Откуда: Москва

Кошмары / Come True
-
Страна: Канада
Жанр: Ужасы
Год выпуска: 2020
Продолжительность: 01:45:11-Перевод: Профессиональный (дублированный) | (iTunes)
Перевод: Любительский (многоголосый закадровый) | (HDRezka Studio)
Перевод: Авторский (одноголосый закадровый) | (А. Дольский)
Cубтитры: Русские (Forced, Full), Английские (Full, SDH)
Оригинальная аудиодорожка: Английский-Режиссёр: Энтони Скотт Бёрнс / Anthony Scott Burns
В ролях: Джулия Сара Стоун, Лэндон Либуарон, Карли Риски, Кристофер Хизерингтон, Тедра Роджерс, Брэндон ДеВин, Джон Таскер, Остин Бэйкер, Шэйн Гост Кипер, Кристофер Томас
Описание: 18-летняя Сара убежала из дома и теперь ночует под открытым небом на детской площадке. Каждую ночь ей снятся странные пугающие образы, поэтому когда девушка видит объявление института изучения сна о наборе добровольцев, она хватается за эту возможность. Тела испытуемых облепляют датчиками, и после первой ночи Сара чувствует себя отдохнувшей, но когда исследователи показывают ей смутно узнаваемые чёрно-белые снимки, у девушки начинается приступ.-Тип релиза: BDRemux 1080p
Контейнер: MKV-Видео: MPEG-4 AVC Video 33991 kbps 1080p / 23,976 fps / 16:9 / High Profile 4.1
Аудио 1: Русский | AC-3, 6 ch, 384 Kbps, 48.0 kHz Dub iTunes
Аудио 2: Русский | AC-3, 6 ch, 448 Kbps, 48.0 kHz MVO HDRezka Studio
Аудио 3: Русский | AC-3, 6 ch, 448 Kbps, 48.0 kHz AVO А. Дольский
Аудио 4: Английский | DTS-HD MA, 6 ch, 3524 Kbps, 48.0 kHz, 24-bit (DTS Core: 5.1 / 48 kHz / 768 kbps / 24-bit)
Формат субтитров: softsub (SRT)-

MediaInfo

Код:
General
Unique ID : 301367551902337422090694727950223363678 (0xE2B9477CC445D45D1BC01279C6814E5E)
Complete name : /Volumes/Promise Pegasus/Come.True.BDRemux.1080p.mkv
Format : Matroska
Format version : Version 4
File size : 28.0 GiB
Duration : 1 h 45 min
Overall bit rate mode : Variable
Overall bit rate : 38.1 Mb/s
Movie name : Come True BDRemux 1080p
Encoded date : UTC 2021-08-18 12:53:43
Writing application : mkvmerge v53.0.0 ('Fool's Gold') 64-bit
Writing library : libebml v1.4.1 + libmatroska v1.6.2
Video
ID : 1
Format : AVC
Format/Info : Advanced Video Codec
Format profile : High@L4.1
Format settings : CABAC / 4 Ref Frames
Format settings, CABAC : Yes
Format settings, Reference frames : 4 frames
Codec ID : V_MPEG4/ISO/AVC
Duration : 1 h 45 min
Bit rate mode : Variable
Bit rate : 33.3 Mb/s
Maximum bit rate : 38.0 Mb/s
Width : 1 920 pixels
Height : 1 080 pixels
Display aspect ratio : 16:9
Frame rate mode : Constant
Frame rate : 23.976 (24000/1001) FPS
Color space : YUV
Chroma subsampling : 4:2:0
Bit depth : 8 bits
Scan type : Progressive
Bits/(Pixel*Frame) : 0.670
Stream size : 24.5 GiB (87%)
Language : English
Default : Yes
Forced : No
Audio #1
ID : 2
Format : AC-3
Format/Info : Audio Coding 3
Commercial name : Dolby Digital
Codec ID : A_AC3
Duration : 1 h 45 min
Bit rate mode : Constant
Bit rate : 384 kb/s
Channel(s) : 6 channels
Channel layout : L R C LFE Ls Rs
Sampling rate : 48.0 kHz
Frame rate : 31.250 FPS (1536 SPF)
Compression mode : Lossy
Stream size : 289 MiB (1%)
Title : Dub iTunes
Language : Russian
Service kind : Complete Main
Default : Yes
Forced : No
Audio #2
ID : 3
Format : AC-3
Format/Info : Audio Coding 3
Commercial name : Dolby Digital
Codec ID : A_AC3
Duration : 1 h 45 min
Bit rate mode : Constant
Bit rate : 448 kb/s
Channel(s) : 6 channels
Channel layout : L R C LFE Ls Rs
Sampling rate : 48.0 kHz
Frame rate : 31.250 FPS (1536 SPF)
Compression mode : Lossy
Stream size : 337 MiB (1%)
Title : MVO HDRezka Studio
Language : Russian
Service kind : Complete Main
Default : No
Forced : No
Audio #3
ID : 4
Format : AC-3
Format/Info : Audio Coding 3
Commercial name : Dolby Digital
Codec ID : A_AC3
Duration : 1 h 45 min
Bit rate mode : Constant
Bit rate : 448 kb/s
Channel(s) : 6 channels
Channel layout : L R C LFE Ls Rs
Sampling rate : 48.0 kHz
Frame rate : 31.250 FPS (1536 SPF)
Compression mode : Lossy
Stream size : 337 MiB (1%)
Title : AVO Дольский
Language : Russian
Service kind : Complete Main
Default : No
Forced : No
Audio #4
ID : 5
Format : DTS XLL
Format/Info : Digital Theater Systems
Commercial name : DTS-HD Master Audio
Codec ID : A_DTS
Duration : 1 h 45 min
Bit rate mode : Variable
Bit rate : 3 524 kb/s
Channel(s) : 6 channels
Channel layout : C L R Ls Rs LFE
Sampling rate : 48.0 kHz
Frame rate : 93.750 FPS (512 SPF)
Bit depth : 24 bits
Compression mode : Lossless
Stream size : 2.59 GiB (9%)
Title : English Original
Language : English
Default : No
Forced : No
Text #1
ID : 6
Format : UTF-8
Codec ID : S_TEXT/UTF8
Codec ID/Info : UTF-8 Plain Text
Duration : 1 h 41 min
Bit rate : 0 b/s
Count of elements : 14
Stream size : 699 Bytes (0%)
Title : Russian forced
Language : Russian
Default : Yes
Forced : No
Text #2
ID : 7
Format : UTF-8
Codec ID : S_TEXT/UTF8
Codec ID/Info : UTF-8 Plain Text
Duration : 1 h 41 min
Bit rate : 31 b/s
Count of elements : 586
Stream size : 23.6 KiB (0%)
Title : Russian full
Language : Russian
Default : No
Forced : No
Text #3
ID : 8
Format : UTF-8
Codec ID : S_TEXT/UTF8
Codec ID/Info : UTF-8 Plain Text
Duration : 1 h 38 min
Bit rate : 24 b/s
Count of elements : 666
Stream size : 17.4 KiB (0%)
Title : English full
Language : English
Default : No
Forced : No
Text #4
ID : 9
Format : UTF-8
Codec ID : S_TEXT/UTF8
Codec ID/Info : UTF-8 Plain Text
Duration : 1 h 44 min
Bit rate : 27 b/s
Count of elements : 880
Stream size : 21.2 KiB (0%)
Title : English SDH
Language : English
Default : No
Forced : No
Menu
00:00:00.000 : en:Chapter 01
00:06:01.027 : en:Chapter 02
00:13:51.664 : en:Chapter 03
00:24:34.097 : en:Chapter 04
00:37:18.986 : en:Chapter 05
00:46:50.474 : en:Chapter 06
00:55:42.714 : en:Chapter 07
01:02:43.301 : en:Chapter 08
01:11:58.939 : en:Chapter 09
01:20:21.650 : en:Chapter 10
01:28:32.390 : en:Chapter 11
01:38:26.734 : en:Chapter 12

Скриншоты

Профиль [ЛС]
Показать сообщения:    

Текущее время: 26-Сен 00:47

Часовой пояс: UTC ± 0



Вы не можете начинать темы
Вы не можете отвечать на сообщения
Вы не можете редактировать свои сообщения
Вы не можете удалять свои сообщения
Вы не можете голосовать в опросах
Вы не можете прикреплять файлы к сообщениям
Вы не можете скачивать файлы