Статистика раздачи
Нет
 
     
 
 

MAGNAT ®

Пол:
Мужской
Стаж:
2 года 5 месяцев
Сообщений:
10823

Откуда: Москва

Город тайн / Засуха
The Dry

Страна: Австралия, США
Жанр: Триллер, драма, криминал, детектив
Год выпуска: 2020
Продолжительность: 01:57:16
Перевод 1: Профессиональный (дублированный) iTunes
Перевод 2: Любительский (многоголосый закадровый) HDRezka Studio
Перевод 3: Любительский (многоголосый закадровый) HDRezka Studio ненормативная лексика
Субтитры: Русские (forced), английские, немецкие, испанские
Оригинальная аудиодорожка: Английский
Режиссер: Роберт Коннолли / Robert Connolly
В ролях: Эрик Бана, Женевьев О’Рейли, Кейр О’Доннелл, Джон Полсон, Джулия Блейк, Брюс Спенс, Уильям Заппа, Мэтью Нэйбл, Джеймс Фрешвилл, Джереми Линдсэй Тейлор
Описание: Аарон Фальк, сделавший блестящую карьеру в федеральной полиции, спустя 20 лет приезжает в родной город на похороны своего когда-то лучшего друга Люка. Факты указывают на то, что тот убил жену и сына, а потом застрелился сам, но знавшие Люка не могут в это поверить. Неохотно принявшись за расследование, Фальк вскоре обнаруживает связь между этим делом и давним событием — смертью 17-летней Элли, их общей с Люком подруги.
Тип релиза: BDRip 720p
Контейнер: MKV
Видео: MPEG-4 AVC, 720p, 1280:536 (2.40:1), 7660 kbps, 24.000 fps
Аудио 1: АС3, 6 ch, 48 kHz, 384 kbps, 16 bits Русский Dub iTunes
Аудио 2: АС3, 6 ch, 48 kHz, 448 kbps, 16 bits Русский MVO HDRezka Studio
Аудио 3: АС3, 6 ch, 48 kHz, 448 kbps, 16 bits Русский MVO HDRezka Studio ненормативная лексика
Аудио 4: АС3, 6 ch, 48 kHz, 640 kbps, 16 bits Английский
Аудио 5: АС3, 2 ch, 48 kHz, 192 kbps, 16 bits Английский Commentary with Director Robert Connolly
Формат субтитров: SRT

MediaInfo

x264 frame I:1340 Avg QP:14.52 size:111358
x264 frame P:31076 Avg QP:16.10 size: 56598
x264 frame B:136459 Avg QP:17.40 size: 35389
x264 consecutive B-frames: 1.3% 0.9% 4.0% 9.0% 11.6% 58.3% 6.9% 1.8% 1.7% 2.1% 2.4%
encoded 168875 frames, 28.78 fps, 7659.84 kb/s, 6425.2 MB
*Zoned Dark / semi Dark Scenes
*Dirty Lines Fixed
General
Unique ID : 170678457635166278104781001741972597516 (0x806779A97806D341B0760840279CEB0C)
Complete name : S:\The.Dry.2020.BDRip.720p.mkv
Format : Matroska
Format version : Version 4
File size : 8.01 GiB
Duration : 1 h 57 min
Overall bit rate : 9 775 kb/s
Encoded date : UTC 2021-08-21 04:54:51
Writing application : mkvmerge v20.0.0 ('I Am The Sun') 64-bit
Writing library : libebml v1.3.5 + libmatroska v1.4.8
Video
ID : 1
Format : AVC
Format/Info : Advanced Video Codec
Format profile : High@L4.1
Format settings : CABAC / 12 Ref Frames
Format settings, CABAC : Yes
Format settings, Reference frames : 12 frames
Codec ID : V_MPEG4/ISO/AVC
Duration : 1 h 57 min
Bit rate : 7 660 kb/s
Width : 1 280 pixels
Height : 536 pixels
Display aspect ratio : 2.40:1
Frame rate mode : Constant
Frame rate : 24.000 FPS
Color space : YUV
Chroma subsampling : 4:2:0
Bit depth : 8 bits
Scan type : Progressive
Bits/(Pixel*Frame) : 0.465
Stream size : 6.27 GiB (78%)
Title : iFT
Writing library : x264 core 161 r3048+58M ~ Encoded by Mocunaman in Portugal
Encoding settings : cabac=1 / ref=12 / deblock=1:-3:-3 / analyse=0x3:0x113 / me=umh / subme=11 / psy=1 / fade_compensate=0.00 / psy_rd=1.05:0.00 / mixed_ref=1 / me_range=32 / chroma_me=1 / trellis=2 / 8x8dct=1 / cqm=0 / deadzone=21,11 / fast_pskip=0 / chroma_qp_offset=-2 / threads=17 / lookahead_threads=4 / sliced_threads=0 / nr=0 / decimate=0 / interlaced=0 / bluray_compat=0 / constrained_intra=0 / fgo=0 / bframes=10 / b_pyramid=2 / b_adapt=2 / b_bias=0 / direct=3 / weightb=1 / open_gop=0 / weightp=2 / keyint=250 / keyint_min=24 / scenecut=40 / intra_refresh=0 / rc_lookahead=60 / rc=crf / mbtree=0 / crf=17.0000 / qcomp=0.63 / qpmin=0:0:0 / qpmax=69:69:69 / qpstep=4 / vbv_maxrate=62500 / vbv_bufsize=78125 / crf_max=0.0 / nal_hrd=none / filler=0 / ip_ratio=1.30 / pb_ratio=1.20 / aq=3:0.75 / aq-sensitivity=10.00 / aq-factor=1.00:1.00:1.00 / aq2=0 / aq3=0 / zones=0,1368,crf=16.5/17560,26909,crf=16.5/47410,60432,crf=16.5/63399,66167,crf=16/87252,100968,crf=16.5/113720,130760,crf=16.5
Language : English
Default : Yes
Forced : No
Color range : Limited
Color primaries : BT.709
Transfer characteristics : BT.709
Matrix coefficients : BT.709
Audio #1
ID : 2
Format : AC-3
Format/Info : Audio Coding 3
Commercial name : Dolby Digital
Codec ID : A_AC3
Duration : 1 h 57 min
Bit rate mode : Constant
Bit rate : 384 kb/s
Channel(s) : 6 channels
Channel layout : L R C LFE Ls Rs
Sampling rate : 48.0 kHz
Frame rate : 31.250 FPS (1536 SPF)
Compression mode : Lossy
Stream size : 322 MiB (4%)
Title : Dub iTunes
Language : Russian
Service kind : Complete Main
Default : Yes
Forced : No
Audio #2
ID : 3
Format : AC-3
Format/Info : Audio Coding 3
Commercial name : Dolby Digital
Codec ID : A_AC3
Duration : 1 h 57 min
Bit rate mode : Constant
Bit rate : 448 kb/s
Channel(s) : 6 channels
Channel layout : L R C LFE Ls Rs
Sampling rate : 48.0 kHz
Frame rate : 31.250 FPS (1536 SPF)
Compression mode : Lossy
Stream size : 376 MiB (5%)
Title : MVO HDRezka Studio
Language : Russian
Service kind : Complete Main
Default : No
Forced : No
Audio #3
ID : 4
Format : AC-3
Format/Info : Audio Coding 3
Commercial name : Dolby Digital
Codec ID : A_AC3
Duration : 1 h 57 min
Bit rate mode : Constant
Bit rate : 448 kb/s
Channel(s) : 6 channels
Channel layout : L R C LFE Ls Rs
Sampling rate : 48.0 kHz
Frame rate : 31.250 FPS (1536 SPF)
Compression mode : Lossy
Stream size : 376 MiB (5%)
Title : MVO HDRezka Studio ненормативная лексика
Language : Russian
Service kind : Complete Main
Default : No
Forced : No
Audio #4
ID : 5
Format : AC-3
Format/Info : Audio Coding 3
Commercial name : Dolby Digital
Codec ID : A_AC3
Duration : 1 h 57 min
Bit rate mode : Constant
Bit rate : 640 kb/s
Channel(s) : 6 channels
Channel layout : L R C LFE Ls Rs
Sampling rate : 48.0 kHz
Frame rate : 31.250 FPS (1536 SPF)
Compression mode : Lossy
Stream size : 537 MiB (7%)
Language : English
Service kind : Complete Main
Default : No
Forced : No
Audio #5
ID : 6
Format : AC-3
Format/Info : Audio Coding 3
Commercial name : Dolby Digital
Codec ID : A_AC3
Duration : 1 h 57 min
Bit rate mode : Constant
Bit rate : 192 kb/s
Channel(s) : 2 channels
Channel layout : L R
Sampling rate : 48.0 kHz
Frame rate : 31.250 FPS (1536 SPF)
Compression mode : Lossy
Stream size : 161 MiB (2%)
Title : Commentary with Director Robert Connolly
Language : English
Service kind : Complete Main
Default : No
Forced : No
Text #1
ID : 7
Format : UTF-8
Codec ID : S_TEXT/UTF8
Codec ID/Info : UTF-8 Plain Text
Duration : 1 h 52 min
Bit rate : 3 b/s
Count of elements : 54
Stream size : 3.14 KiB (0%)
Title : forced
Language : Russian
Default : Yes
Forced : No
Text #2
ID : 8
Format : UTF-8
Codec ID : S_TEXT/UTF8
Codec ID/Info : UTF-8 Plain Text
Duration : 1 h 50 min
Bit rate : 47 b/s
Count of elements : 1329
Stream size : 38.2 KiB (0%)
Language : English
Default : No
Forced : No
Text #3
ID : 9
Format : UTF-8
Codec ID : S_TEXT/UTF8
Codec ID/Info : UTF-8 Plain Text
Duration : 1 h 56 min
Bit rate : 51 b/s
Count of elements : 1353
Stream size : 43.7 KiB (0%)
Title : SDH
Language : German
Default : No
Forced : No
Text #4
ID : 10
Format : UTF-8
Codec ID : S_TEXT/UTF8
Codec ID/Info : UTF-8 Plain Text
Duration : 1 h 50 min
Bit rate : 50 b/s
Count of elements : 1329
Stream size : 41.2 KiB (0%)
Language : Spanish
Default : No
Forced : No
Menu
00:00:00.000 : Chapter 01
00:10:18.125 : Chapter 02
00:18:41.250 : Chapter 03
00:27:51.458 : Chapter 04
00:37:40.208 : Chapter 05
00:45:57.000 : Chapter 06
00:55:04.042 : Chapter 07
01:03:10.875 : Chapter 08
01:15:37.542 : Chapter 09
01:24:29.583 : Chapter 10
01:32:51.208 : Chapter 11
01:45:40.667 : Chapter 12
Профиль [ЛС]
Показать сообщения:    

Текущее время: 25-Сен 23:54

Часовой пояс: UTC ± 0



Вы не можете начинать темы
Вы не можете отвечать на сообщения
Вы не можете редактировать свои сообщения
Вы не можете удалять свои сообщения
Вы не можете голосовать в опросах
Вы не можете прикреплять файлы к сообщениям
Вы не можете скачивать файлы