Статистика раздачи
Нет
 
     
 
 

MAGNAT ®

Пол:
Мужской
Стаж:
2 года 5 месяцев
Сообщений:
10823

Откуда: Москва

Зависнуть в Палм-Спрингс / Palm Springs- Страна: США, Гонконг
Год выпуска: 2020
Производство: Culmination Productions, Limelight, The Lonely Island, Sun Entertainment Culture
Жанр: комедия, мелодрама, фантастика
Продолжительность: 01:30:03
Перевод №1: Профессиональный (полное дублирование) | Мосфильм-Мастер
Перевод №2: Профессиональный (многоголосый закадровый) | NewStudio | Ненормативная лексика
Перевод №3: Профессиональный (двухголосый закадровый) | Кубик в Кубе | Ненормативная лексика
Перевод №4: Авторский (одноголосый закадровый) | В переводе Гоблина - Дмитрий Пучков | Ненормативная лексика
Перевод №5: Студийный (одноголосый закадровый) | Кураж-Бамбей
Субтитры: Русские (Forced, 3x Full - iTunes, Кубик в Кубе и Где тексты, Лебовски?), английские (Full, SDH)
Режиссёр: Макс Барбаков
В ролях: Энди Сэмберг, Кристин Милиоти, Джей Кэй Симмонс, Питер Галлахер, Мередит Хагнер, Камила Мендес, Тайлер Хечлин, Коннер О'Мейлли, Крис Пэнг, Жаклин Обрадорс, Джун Скуиб, Тонгаи Чириза, Дэйл Дики, Брайан Даффи, Мартин Килдэр, Лилли Бёрдселл, Мишель Джонстон, Марк Кубр, Дэвид Хатчисон, Трой Кристиан
Описание: 9 ноября неподалёку от Палм-Спрингс идёт подготовка к свадьбе. Найлз, парень одной из подружек невесты, не торопится облачаться в смокинг - в шортах и гавайской рубашке он запрыгивает в бассейн и целый день расслабленно выпивает, а вечером произносит трогательную речь для молодожёнов. Последнее особенно впечатляет старшую сестру невесты Сару, и вот уже девушка оказывается с Найлзом наедине под звёздным небом. Но тут события принимают неожиданный поворот, и Сара вслед за своим новым приятелем заходит в загадочную пещеру, а на следующий день обнаруживает, что на календаре снова 9 ноября.
Качество: BDRemux 1080p
Контейнер: MKV
Видео: AVC, 1920х1080 (16:9), 24 fps, ~ 32.8 Mbps, 0.659 bit/pixel
Аудио №1: AC3, 48 kHz, 6 ch, 384 Kbps | Мосфильм-Мастер
Аудио №2: AC3, 48 kHz, 6 ch, 384 Kbps | NewStudio
Аудио №3: AC3, 48 kHz, 6 ch, 384 Kbps | Кубик в Кубе
Аудио №4: AC3, 48 kHz, 2 ch, 192 Kbps | Дмитрий Пучков
Аудио №5: AC3, 48 kHz, 2 ch, 192 Kbps | Кураж-Бамбей
Аудио №6: DTS-HD MA, 48 kHz, 6 ch, 2969 Kbps (DTS Core: 48 kHz, 6 ch, 1509 kbps, 24-bit) | Оригинал
Формат субтитров: softsub (SRT)

Релиз

Цитата:
- Исходник Palm.Springs.2020.MULTi.COMPLETE.BLURAY-MONUMENT (thx)
- Источник дубляжа - iTunes. Подогнано без потери качества при помощи eac3to с задержкой в -1895ms.
- Источник озвучки NewStudio - из предыдущих релизов в сети (на знаю кто почистил от рекламы). Подогнано без потери качества при помощи eac3to с задержкой в +4041ms.
- Источник озвучки Кубик в Кубе - КиноПоиск HD. Изменена частота кадров из 25 в 24 к/с с сохранением тональности при помощи Reaper. При сборке была выставлена та же нормализация что и в исходнике.
- Источник озвучки Д. Пучковa и Кураж-Бамбей - Wink. Большое спасибо TBiL за исходники. Изменена частота кадров из 25 в 24 к/с с сохранением тональности при помощи Reaper.
- Источник русских субтитров Кубик в Кубе - КиноПоиск HD.
- Источник русских субтитров Где тексты, Лебовски? - их телеграм-канал.
- Источник английских субтитров - Hulu.
- Сохранены оригинальные главы как на Amazon.

eac3to log

eac3to v3.34
command line: "Z:\home\shadyplace\torrents\rtorrent\UsEac3to130\eac3to.exe" "Z:\home\shadyplace\torrents\rtorrent\Palm.Springs.2020.MULTi.COMPLETE.BLURAY-MONUMENT\BDMV\STREAM\00021.m2ts" "Z:\home\shadyplace\torrents\rtorrent\UsEac3to130\00021.m2ts_.*" -progressnumbers -log="Z:\home\shadyplace\torrents\rtorrent\UsEac3to130\UsEac3To.log"
------------------------------------------------------------------------------
M2TS, 1 video track, 2 audio tracks, 1 subtitle track, 1:30:04, 24p
1: h264/AVC, 1080p24 (16:9)
2: DTS Master Audio, German, 5.1 channels, 24 bits, 48kHz, dialnorm: -4dB
(core: DTS, 5.1 channels, 1509kbps, 48kHz, dialnorm: -4dB)
3: DTS Master Audio, English, 5.1 channels, 24 bits, 48kHz, dialnorm: -3dB
(core: DTS, 5.1 channels, 1509kbps, 48kHz, dialnorm: -3dB)
4: Subtitle (PGS), German
[v01] The video framerate is correct, but rather unusual.  <WARNING>
[s04] Extracting subtitle track number 4...
[v01] Extracting video track number 1...
[a03] Extracting audio track number 3...
[a02] Extracting audio track number 2...
[v01] Creating file "Z:\home\shadyplace\torrents\rtorrent\UsEac3to130\00021.m2ts_ - 1 - h264, 1080p24.h264"...
[a02] Creating file "Z:\home\shadyplace\torrents\rtorrent\UsEac3to130\00021.m2ts_ - 2 - DTS Master Audio, German, 5.1 channels, 24 bits, 48kHz.dtsma"...
[a03] Creating file "Z:\home\shadyplace\torrents\rtorrent\UsEac3to130\00021.m2ts_ - 3 - DTS Master Audio, English, 5.1 channels, 24 bits, 48kHz.dtsma"...
[s04] Creating file "Z:\home\shadyplace\torrents\rtorrent\UsEac3to130\00021.m2ts_ - 4 - Subtitle (PGS), German.sup"...
Video track 1 contains 129689 frames.
Subtitle track 4 contains 1072 captions.
eac3to processing took 1 minute, 30 seconds.
Done.

MediaInfo

General
Unique ID : 319952052966652929052483510721134118305 (0xF0B4862216EAB9B1B2B666B9C93AC5A1)
Complete name : Palm.Springs.2020.1080p.Remux.AVC.DD5.1-EniaHD.mkv
Format : Matroska
Format version : Version 4
File size : 23.5 GiB
Duration : 1 h 30 min
Overall bit rate mode : Variable
Overall bit rate : 37.3 Mb/s
Movie name : Palm Springs (2020)
Writing application : mkvmerge v60.0.0 ('Are We Copies?') 64-bit
Writing library : libebml v1.4.2 + libmatroska v1.6.4
Video
ID : 1
Format : AVC
Format/Info : Advanced Video Codec
Format profile : High@L4.1
Format settings : CABAC / 4 Ref Frames
Format settings, CABAC : Yes
Format settings, Reference frames : 4 frames
Codec ID : V_MPEG4/ISO/AVC
Duration : 1 h 30 min
Bit rate mode : Variable
Bit rate : 32.8 Mb/s
Maximum bit rate : 36.0 Mb/s
Width : 1 920 pixels
Height : 1 080 pixels
Display aspect ratio : 16:9
Frame rate mode : Constant
Frame rate : 24.000 FPS
Color space : YUV
Chroma subsampling : 4:2:0
Bit depth : 8 bits
Scan type : Progressive
Bits/(Pixel*Frame) : 0.659
Stream size : 20.6 GiB (88%)
Default : Yes
Forced : No
Audio #1
ID : 2
Format : AC-3
Format/Info : Audio Coding 3
Commercial name : Dolby Digital
Codec ID : A_AC3
Duration : 1 h 30 min
Bit rate mode : Constant
Bit rate : 384 kb/s
Channel(s) : 6 channels
Channel layout : L R C LFE Ls Rs
Sampling rate : 48.0 kHz
Frame rate : 31.250 FPS (1536 SPF)
Compression mode : Lossy
Stream size : 247 MiB (1%)
Title : Dub - Мосфильм-Мастер
Language : Russian
Service kind : Complete Main
Default : Yes
Forced : No
Audio #2
ID : 3
Format : AC-3
Format/Info : Audio Coding 3
Commercial name : Dolby Digital
Codec ID : A_AC3
Duration : 1 h 30 min
Bit rate mode : Constant
Bit rate : 384 kb/s
Channel(s) : 6 channels
Channel layout : L R C LFE Ls Rs
Sampling rate : 48.0 kHz
Frame rate : 31.250 FPS (1536 SPF)
Compression mode : Lossy
Stream size : 247 MiB (1%)
Title : MVO - NewStudio
Language : Russian
Service kind : Complete Main
Default : No
Forced : No
Audio #3
ID : 4
Format : AC-3
Format/Info : Audio Coding 3
Commercial name : Dolby Digital
Codec ID : A_AC3
Duration : 1 h 30 min
Bit rate mode : Constant
Bit rate : 384 kb/s
Channel(s) : 6 channels
Channel layout : L R C LFE Ls Rs
Sampling rate : 48.0 kHz
Frame rate : 31.250 FPS (1536 SPF)
Compression mode : Lossy
Stream size : 247 MiB (1%)
Title : DVO - Кубик в Кубе
Language : Russian
Service kind : Complete Main
Default : No
Forced : No
Audio #4
ID : 5
Format : AC-3
Format/Info : Audio Coding 3
Commercial name : Dolby Digital
Codec ID : A_AC3
Duration : 1 h 30 min
Bit rate mode : Constant
Bit rate : 192 kb/s
Channel(s) : 2 channels
Channel layout : L R
Sampling rate : 48.0 kHz
Frame rate : 31.250 FPS (1536 SPF)
Compression mode : Lossy
Stream size : 124 MiB (1%)
Title : AVO - Дмитрий Пучков
Language : Russian
Service kind : Complete Main
Default : No
Forced : No
Audio #5
ID : 6
Format : AC-3
Format/Info : Audio Coding 3
Commercial name : Dolby Digital
Codec ID : A_AC3
Duration : 1 h 27 min
Bit rate mode : Constant
Bit rate : 192 kb/s
Channel(s) : 2 channels
Channel layout : L R
Sampling rate : 48.0 kHz
Frame rate : 31.250 FPS (1536 SPF)
Compression mode : Lossy
Stream size : 121 MiB (1%)
Title : VO - Кураж-Бамбей
Language : Russian
Service kind : Complete Main
Default : No
Forced : No
Audio #6
ID : 7
Format : DTS XLL
Format/Info : Digital Theater Systems
Commercial name : DTS-HD Master Audio
Codec ID : A_DTS
Duration : 1 h 30 min
Bit rate mode : Variable
Bit rate : 2 969 kb/s
Channel(s) : 6 channels
Channel layout : C L R Ls Rs LFE
Sampling rate : 48.0 kHz
Frame rate : 93.750 FPS (512 SPF)
Bit depth : 24 bits
Compression mode : Lossless
Stream size : 1.87 GiB (8%)
Title : Original
Language : English
Default : No
Forced : No
Text #1
ID : 8
Format : UTF-8
Codec ID : S_TEXT/UTF8
Codec ID/Info : UTF-8 Plain Text
Duration : 1 h 3 min
Bit rate : 1 b/s
Count of elements : 17
Stream size : 832 Bytes (0%)
Title : Forced
Language : Russian
Default : Yes
Forced : No
Text #2
ID : 9
Format : UTF-8
Codec ID : S_TEXT/UTF8
Codec ID/Info : UTF-8 Plain Text
Duration : 1 h 24 min
Bit rate : 98 b/s
Count of elements : 1257
Stream size : 60.8 KiB (0%)
Title : iTunes
Language : Russian
Default : No
Forced : No
Text #3
ID : 10
Format : UTF-8
Codec ID : S_TEXT/UTF8
Codec ID/Info : UTF-8 Plain Text
Duration : 1 h 22 min
Bit rate : 100 b/s
Count of elements : 1179
Stream size : 61.0 KiB (0%)
Title : Кубик в Кубе
Language : Russian
Default : No
Forced : No
Text #4
ID : 11
Format : UTF-8
Codec ID : S_TEXT/UTF8
Codec ID/Info : UTF-8 Plain Text
Duration : 1 h 24 min
Bit rate : 106 b/s
Count of elements : 1451
Stream size : 65.8 KiB (0%)
Title : Где тексты, Лебовски?
Language : Russian
Default : No
Forced : No
Text #5
ID : 12
Format : UTF-8
Codec ID : S_TEXT/UTF8
Codec ID/Info : UTF-8 Plain Text
Duration : 1 h 23 min
Bit rate : 69 b/s
Count of elements : 1466
Stream size : 42.6 KiB (0%)
Language : English
Default : No
Forced : No
Text #6
ID : 13
Format : UTF-8
Codec ID : S_TEXT/UTF8
Codec ID/Info : UTF-8 Plain Text
Duration : 1 h 29 min
Bit rate : 77 b/s
Count of elements : 1802
Stream size : 51.0 KiB (0%)
Title : SDH
Language : English
Default : No
Forced : No
Menu
00:00:00.000 : Main Title
00:00:28.375 : Pre-Wedding Jitters
00:02:52.166 : Wedding Celebrations
00:08:25.291 : Finding Connections at the Wedding
00:11:33.833 : A Crazy Night in the Desert
00:13:48.875 : A Twist in the Story
00:18:03.875 : Stuck in a Loop
00:21:21.333 : Running Away
00:23:45.250 : Learning to Suffer Existence
00:34:03.583 : Selfless Acts
00:36:14.541 : Starting Again
00:36:44.708 : Wasting Time
00:41:06.333 : A special Night in the Desert
00:46:53.875 : Revelations
00:53:55.625 : Where is Sarah
00:59:56.125 : Nyles Gives Up
01:04:36.958 : Sarah Takes Matters Into Her Own Hands
01:06:45.667 : A New Plan
01:15:33.625 : Finding Out How to Live
01:16:56.833 : Confessions
01:21:59.417 : Another Sunny Day in Palm Springs
01:24:44.750 : End Credits

Скриншоты


Профиль [ЛС]
Показать сообщения:    

Текущее время: 25-Сен 23:28

Часовой пояс: UTC ± 0



Вы не можете начинать темы
Вы не можете отвечать на сообщения
Вы не можете редактировать свои сообщения
Вы не можете удалять свои сообщения
Вы не можете голосовать в опросах
Вы не можете прикреплять файлы к сообщениям
Вы не можете скачивать файлы