Статистика раздачи
Скачал: [ 1 ]
 
     
 
 

MAGNAT ®

Пол:
Мужской
Стаж:
2 года 5 месяцев
Сообщений:
10823

Откуда: Москва

Порочное удовольствие / Vicious Fun
Страна: Канада
Студия: Black Fawn Films, Breakthrough Entertainment, Citizen Skull Productions, Particular Crowd, Radioactive Pictures
Жанр: ужасы, комедия
Год выпуска: 2020
Продолжительность: 01:37:02
Перевод: профессиональный (многоголосый закадровый) СВ-Дубль
Субтитры: нет
Оригинальная аудиодорожка: английский
Режиссер: Коуди Кэлахан / Cody Calahan
В ролях: Ивэн Марш, Эмбер Голдфарб, Эри Миллен, Джулиан Ричингс, Роберт Мэйллет, Шон Баек, Дэвид Кокнер, Алекс Стил, Кристофер Боуман, Марк Гибсон
Описание:Миннесота, 1983 год. Молодой кинокритик Джоэл, работающий в хоррор-журнале, решил проследить за ухажером своей соседки, с которой он снимает дом и в которую безответно влюблён. В результате парень напился и уснул в подсобке бара, а когда пришел в себя, случайно оказался на групповой терапии для героев своих любимых фильмов ужасов — серийных убийц.
Тип релиза: WEB-DL 720p
Контейнер: MKV
Видео: x264, 1280x536, 16:9, ~4000 kbps, 25 fps
Аудио 1: AAC, 48.0 kHz, 192 kbps, 2 ch - русский
Аудио 2: AAC, 48.0 kHz, 192 kbps, 2 ch - английский

MediaInfo

Код:
General
Unique ID : 235183306541646277837515437041321016557 (0xB0EEA841760572E2E1F52DEF53187CED)
Complete name : Vicious.Fun.2020.720p.WEB-DL.AAC2.0.x264-tG1R0.mkv
Format : Matroska
Format version : Version 4
File size : 2.96 GiB
Duration : 1 h 37 min
Overall bit rate : 4 371 kb/s
Encoded date : UTC 2021-08-24 05:50:47
Writing application : mkvmerge v59.0.0 ('Shining Star') 64-bit
Writing library : libebml v1.4.2 + libmatroska v1.6.4
Video
ID : 1
Format : AVC
Format/Info : Advanced Video Codec
Format profile : High@L3.1
Format settings : CABAC / 6 Ref Frames
Format settings, CABAC : Yes
Format settings, Reference frames : 6 frames
Codec ID : V_MPEG4/ISO/AVC
Duration : 1 h 37 min
Bit rate : 4 000 kb/s
Width : 1 280 pixels
Height : 536 pixels
Display aspect ratio : 2.40:1
Frame rate mode : Constant
Frame rate : 25.000 FPS
Color space : YUV
Chroma subsampling : 4:2:0
Bit depth : 8 bits
Scan type : Progressive
Bits/(Pixel*Frame) : 0.233
Stream size : 2.70 GiB (91%)
Title : Vicious Fun (2020) - tt11778118
Writing library : x264 core 157
Encoding settings : cabac=1 / ref=6 / deblock=1:0:0 / analyse=0x3:0x133 / me=umh / subme=10 / psy=1 / psy_rd=1.00:0.00 / mixed_ref=1 / me_range=24 / chroma_me=1 / trellis=2 / 8x8dct=1 / cqm=0 / deadzone=21,11 / fast_pskip=1 / chroma_qp_offset=-2 / threads=17 / lookahead_threads=2 / sliced_threads=0 / nr=0 / decimate=1 / interlaced=0 / bluray_compat=0 / constrained_intra=0 / bframes=8 / b_pyramid=2 / b_adapt=2 / b_bias=0 / direct=3 / weightb=1 / open_gop=0 / weightp=2 / keyint=200 / keyint_min=100 / scenecut=40 / intra_refresh=0 / rc_lookahead=60 / rc=2pass / mbtree=1 / bitrate=4000 / ratetol=1.0 / qcomp=0.60 / qpmin=0 / qpmax=69 / qpstep=4 / cplxblur=20.0 / qblur=0.5 / vbv_maxrate=4400 / vbv_bufsize=6000 / nal_hrd=none / filler=0 / ip_ratio=1.40 / aq=1:1.00
Language : English
Default : Yes
Forced : No
Audio #1
ID : 2
Format : AAC LC
Format/Info : Advanced Audio Codec Low Complexity
Codec ID : A_AAC-2
Duration : 1 h 37 min
Bit rate : 192 kb/s
Channel(s) : 2 channels
Channel layout : L R
Sampling rate : 48.0 kHz
Frame rate : 46.875 FPS (1024 SPF)
Compression mode : Lossy
Stream size : 134 MiB (4%)
Language : Russian
Default : Yes
Forced : No
Audio #2
ID : 3
Format : AAC LC
Format/Info : Advanced Audio Codec Low Complexity
Codec ID : A_AAC-2
Duration : 1 h 37 min
Bit rate : 192 kb/s
Channel(s) : 2 channels
Channel layout : L R
Sampling rate : 48.0 kHz
Frame rate : 46.875 FPS (1024 SPF)
Compression mode : Lossy
Stream size : 134 MiB (4%)
Language : English
Default : No
Forced : No

Скриншоты

Профиль [ЛС]
Показать сообщения:    

Текущее время: 26-Сен 00:19

Часовой пояс: UTC ± 0



Вы не можете начинать темы
Вы не можете отвечать на сообщения
Вы не можете редактировать свои сообщения
Вы не можете удалять свои сообщения
Вы не можете голосовать в опросах
Вы не можете прикреплять файлы к сообщениям
Вы не можете скачивать файлы