Статистика раздачи
Размер:  2,45 GB   |    Зарегистрирован:  6 месяцев 17 дней   |    Скачан:  0 раз
Сидов:  11  [  0 KB/s  ]  
 
     
 
 

Гость ®

Пол:
Не указан

Ты только будь со мною рядом
Год выпуска: 2019
Производство: Студия Беркана
Жанр: мелодрама
Продолжительность: ~00:43:00 серия
Субтитры: нет
Режиссёр: Константин Фролов
В ролях: Дарья Пармененкова, Алина Мурзагалиева, Владимир Кузнецов, Геннадий Смирнов, Ирина Горячева, Кристина Кузьмина, Егор Лесников, Илья Рябов, Татьяна Полонская, Любовь Макеева, Яков Петров, Дмитрий Ткаченко, Изабелла Чирина, Константин Хасанов, Анастасия Никитина, Галина Сидорова

Описание: Спустя годы после окончания школы Марина и Диана случайно встретились на улице. Оказалось, что в отличие от Марины, Диана сумела прекрасно устроить свою жизнь. Она замужем за бизнесменом и живет в шикарном особняке. Диана предлагает подруге стать поварихой в ее доме. Для потерянной Марины это шанс начать новую жизнь.

Реклама: Нет.
Кинопоиск
Все раздачи сериала
Sample
Качество: HDTVRip
Формат: AVI
Видео кодек: XviD
Аудио кодек: AC3
Видео: 720x400 (1.80:1), 25 fps, XviD build 73 ~1700 kbps avg, 0.236 bit/pixel
Аудио: 48.0 kHz, AC3 Dolby Digital, 2/0 (L,R) ch, ~ 192 kbps

MI

General
Complete name : D:\Ты только будь со мною рядом.2019.HDTVRip\01.Ты только будь со мною рядом.2019.HDTVRip.avi
Format : AVI
Format/Info : Audio Video Interleave
File size : 1.15 GiB
Duration : 1 h 26 min
Overall bit rate : 1 900 kb/s
Writing application : VirtualDubMod 1.5.10.3 | www.virtualdub-fr.org || (build 2550/release)
Writing library : VirtualDubMod build 2550/release
Video
ID : 0
Format : MPEG-4 Visual
Format profile : Advanced Simple@L5
Format settings : BVOP1
Format settings, BVOP : 1
Format settings, QPel : No
Format settings, GMC : No warppoints
Format settings, Matrix : Default (MPEG)
Codec ID : XVID
Codec ID/Hint : XviD
Duration : 1 h 26 min
Bit rate : 1 698 kb/s
Width : 720 pixels
Height : 400 pixels
Display aspect ratio : 16:9
Frame rate : 25.000 FPS
Color space : YUV
Chroma subsampling : 4:2:0
Bit depth : 8 bits
Scan type : Progressive
Compression mode : Lossy
Bits/(Pixel*Frame) : 0.236
Stream size : 1.03 GiB (89%)
Writing library : XviD 73
Audio
ID : 1
Format : AC-3
Format/Info : Audio Coding 3
Codec ID : 2000
Duration : 1 h 26 min
Bit rate mode : Constant
Bit rate : 192 kb/s
Channel(s) : 2 channels
Channel positions : Front: L R
Sampling rate : 48.0 kHz
Frame rate : 31.250 FPS (1536 SPF)
Bit depth : 16 bits
Compression mode : Lossy
Stream size : 119 MiB (10%)
Alignment : Split accross interleaves
Interleave, duration : 40 ms (1.00 video frame)
Interleave, preload duratio : 500 ms
Service kind : Complete Main

Скриншоты


[cybertorrent.net].t2370.torrent 
Торрент: Зарегистрирован [ 2019-04-29 16:03 ] · 808F022A8C261790837856EC91B8FC95E8589ED1

Скачать .torrent

Скачать

13 KB

Статус: проверено
Скачан: 0 раз
Размер: 2,45 GB
terms.php
Показать сообщения:    

Текущее время: 17-Ноя 05:34

Часовой пояс: UTC ± 0



Вы не можете начинать темы
Вы не можете отвечать на сообщения
Вы не можете редактировать свои сообщения
Вы не можете удалять свои сообщения
Вы не можете голосовать в опросах
Вы не можете прикреплять файлы к сообщениям
Вы можете скачивать файлы