Статистика раздачи
Нет
 
     
 
 

MAGNAT ®

Пол:
Мужской
Стаж:
2 года 5 месяцев
Сообщений:
10823

Откуда: Москва

Заклятие 3: По воле дьявола
The Conjuring: The Devil Made Me Do It

Страна: США, Великобритания
Жанр: Ужасы, детектив
Год выпуска: 2021
Продолжительность: 01:51:53
Перевод 1: Профессиональный (дублированный) Пифагор
Перевод 2: Любительский (многоголосый закадровый) HDRezka Studio
Перевод 3: Любительский (двухголосый закадровый) Pazl Voice
Субтитры: Русские (forced х2, full х2), украинские (forced), английские, эстонские, латвийские, литовские, французские, немецкие, испанские x2
Оригинальная аудиодорожка: Английский
Режиссер: Майкл Чавес / Michael Chaves
В ролях: Патрик Уилсон, Вера Фармига, Руаири О’Коннор, Сара Кэтрин Хук, Джулиан Хиллиард, Джон Ноубл, Эжени Бондюран, Шэннон Кук-Чун, Ронни Джин Блевинс, Кит А. Болден
Описание: 18 июля 1981 года Эд и Лоррейн Уоррены присутствовали при проведении экзорцизма над маленьким Дэвидом Глатцелом. Священник и семья мальчика безуспешно пытались изгнать злобную сущность, Эд заработал сердечный приступ, и тогда Арни — парень старшей сестры Дэвида — предложил демону свою душу.
Некоторое время спустя Арни убивает своего домовладельца и после говорит, что не помнит произошедшего. Впервые в истории США подозреваемый в убийстве заявлет, что был одержим демоном, и теперь судьба парня зависит от того, смогут ли Уоррены найти этому доказательства.
Тип релиза: BDRip 1080p
Контейнер: MKV
Видео: MPEG-4 AVC, 1080p, 1920:804 (2.40:1), 13.3 Mbps, 23.976 fps
Аудио 1: Е-АС3, 6 ch, 48 kHz, 448 kbps, 16 bits Русский Dub Пифагор
Аудио 2: АС3, 6 ch, 48 kHz, 448 kbps, 16 bits Русский MVO HDRezka Studio
Аудио 3: АС3, 6 ch, 48 kHz, 448 kbps, 16-bits Русский DVO Pazl Voice
Аудио 4: АС3, 6 ch, 48 kHz, 384 kbps, 16 bits Украинский Dub iTunes Postmodern
Аудио 5: АС3, 6 ch, 48 kHz, 384 kbps, 16 bits Украинский MVO DniproFilm / HDRezka Studio
Аудио 6: E-AC3, 8 ch, 48 kHz, 1024 kbps, 16 bits Английский
Формат субтитров: SRT

MediaInfo

x264 [info]: frame I:1258 Avg QP:13.34 size:192458
x264 [info]: frame P:33909 Avg QP:14.45 size:119520
x264 [info]: frame B:125787 Avg QP:15.33 size:54389
x264 [info]: consecutive B-frames:2.2% 2.2% 8.5% 17.0% 16.4% 30.9% 11.1% 10.3% 1.4%
Encoded 160954 Frames, 17.45 fps, 13271.19 kb/s
General
Unique ID : 201178288712966305885349361541679501184 (0x9759876F1E69528DFE939C674D514F80)
Complete name : S:\The.Conjuring.The.Devil.Made.Me.Do.It.2021.BDRip.1080p.mkv
Format : Matroska
Format version : Version 4
File size : 12.8 GiB
Duration : 1 h 51 min
Overall bit rate : 16.4 Mb/s
Encoded date : UTC 2021-08-16 11:45:00
Writing application : mkvmerge v20.0.0 ('I Am The Sun') 64-bit
Writing library : libebml v1.3.5 + libmatroska v1.4.8
Video
ID : 1
Format : AVC
Format/Info : Advanced Video Codec
Format profile : High@L4.1
Format settings : CABAC / 5 Ref Frames
Format settings, CABAC : Yes
Format settings, Reference frames : 5 frames
Codec ID : V_MPEG4/ISO/AVC
Duration : 1 h 51 min
Bit rate : 13.3 Mb/s
Width : 1 920 pixels
Height : 804 pixels
Display aspect ratio : 2.40:1
Frame rate mode : Constant
Frame rate : 23.976 (24000/1001) FPS
Color space : YUV
Chroma subsampling : 4:2:0
Bit depth : 8 bits
Scan type : Progressive
Bits/(Pixel*Frame) : 0.359
Stream size : 10.4 GiB (81%)
Title : LoRD
Writing library : x264 core 164 r3065->LoRD
Encoding settings : cabac=1 / ref=5 / deblock=1:-3:-3 / analyse=0x3:0x133 / me=umh / subme=10 / psy=1 / psy_rd=1.00:0.00 / mixed_ref=1 / me_range=24 / chroma_me=1 / trellis=2 / 8x8dct=1 / cqm=0 / deadzone=21,11 / fast_pskip=0 / chroma_qp_offset=-2 / threads=24 / lookahead_threads=4 / sliced_threads=0 / nr=0 / decimate=0 / interlaced=0 / bluray_compat=0 / constrained_intra=0 / bframes=8 / b_pyramid=2 / b_adapt=2 / b_bias=0 / direct=3 / weightb=1 / open_gop=0 / weightp=2 / keyint=250 / keyint_min=23 / scenecut=40 / intra_refresh=0 / rc_lookahead=60 / rc=crf / mbtree=0 / crf=16.5 / qcomp=0.60 / qpmin=0 / qpmax=69 / qpstep=4 / vbv_maxrate=62500 / vbv_bufsize=78125 / crf_max=0.0 / nal_hrd=none / filler=0 / ip_ratio=1.20 / pb_ratio=1.20 / aq=3:0.90
Language : English
Default : Yes
Forced : No
Color range : Limited
Color primaries : BT.709
Transfer characteristics : BT.709
Matrix coefficients : BT.709
Audio #1
ID : 2
Format : E-AC-3
Format/Info : Enhanced AC-3
Commercial name : Dolby Digital Plus
Codec ID : A_EAC3
Duration : 1 h 51 min
Bit rate mode : Constant
Bit rate : 448 kb/s
Channel(s) : 6 channels
Channel layout : L R C LFE Ls Rs
Sampling rate : 48.0 kHz
Frame rate : 31.250 FPS (1536 SPF)
Compression mode : Lossy
Stream size : 358 MiB (3%)
Title : Dub Пифагор
Language : Russian
Service kind : Complete Main
Default : Yes
Forced : No
Audio #2
ID : 3
Format : AC-3
Format/Info : Audio Coding 3
Commercial name : Dolby Digital
Codec ID : A_AC3
Duration : 1 h 51 min
Bit rate mode : Constant
Bit rate : 448 kb/s
Channel(s) : 6 channels
Channel layout : L R C LFE Ls Rs
Sampling rate : 48.0 kHz
Frame rate : 31.250 FPS (1536 SPF)
Compression mode : Lossy
Stream size : 359 MiB (3%)
Title : MVO HDRezka Studio
Language : Russian
Service kind : Complete Main
Default : No
Forced : No
Audio #3
ID : 4
Format : AC-3
Format/Info : Audio Coding 3
Commercial name : Dolby Digital
Codec ID : A_AC3
Duration : 1 h 51 min
Bit rate mode : Constant
Bit rate : 448 kb/s
Channel(s) : 6 channels
Channel layout : L R C LFE Ls Rs
Sampling rate : 48.0 kHz
Frame rate : 31.250 FPS (1536 SPF)
Compression mode : Lossy
Stream size : 358 MiB (3%)
Title : DVO Pazl Voice
Language : Russian
Service kind : Complete Main
Default : No
Forced : No
Audio #4
ID : 5
Format : AC-3
Format/Info : Audio Coding 3
Commercial name : Dolby Digital
Codec ID : A_AC3
Duration : 1 h 51 min
Bit rate mode : Constant
Bit rate : 384 kb/s
Channel(s) : 6 channels
Channel layout : L R C LFE Ls Rs
Sampling rate : 48.0 kHz
Frame rate : 31.250 FPS (1536 SPF)
Compression mode : Lossy
Stream size : 307 MiB (2%)
Title : Dub iTunes Postmodern
Language : Ukrainian
Service kind : Complete Main
Default : No
Forced : No
Audio #5
ID : 6
Format : AC-3
Format/Info : Audio Coding 3
Commercial name : Dolby Digital
Codec ID : A_AC3
Duration : 1 h 51 min
Bit rate mode : Constant
Bit rate : 384 kb/s
Channel(s) : 6 channels
Channel layout : L R C LFE Ls Rs
Sampling rate : 48.0 kHz
Frame rate : 31.250 FPS (1536 SPF)
Compression mode : Lossy
Stream size : 307 MiB (2%)
Title : MVO DniproFilm / HDRezka Studio
Language : Ukrainian
Service kind : Complete Main
Default : No
Forced : No
Audio #6
ID : 7
Format : E-AC-3
Format/Info : Enhanced AC-3
Commercial name : Dolby Digital Plus
Codec ID : A_EAC3
Duration : 1 h 51 min
Bit rate mode : Constant
Bit rate : 1 024 kb/s
Channel(s) : 6 channels
Channel(s)_Original : 8 channels
ChannelLayout_Original : L R C LFE Ls Rs Lrs Rrs
Sampling rate : 48.0 kHz
Frame rate : 31.250 FPS (1536 SPF)
Compression mode : Lossy
Stream size : 819 MiB (6%)
Language : English
Service kind : Complete Main
Default : No
Forced : No
Text #1
ID : 8
Format : UTF-8
Codec ID : S_TEXT/UTF8
Codec ID/Info : UTF-8 Plain Text
Duration : 1 h 45 min
Bit rate : 5 b/s
Count of elements : 64
Stream size : 3.94 KiB (0%)
Title : forced
Language : Russian
Default : Yes
Forced : No
Text #2
ID : 9
Format : UTF-8
Codec ID : S_TEXT/UTF8
Codec ID/Info : UTF-8 Plain Text
Duration : 1 h 45 min
Bit rate : 3 b/s
Count of elements : 47
Stream size : 2.62 KiB (0%)
Title : forced HDRezka
Language : Russian
Default : No
Forced : No
Text #3
ID : 10
Format : UTF-8
Codec ID : S_TEXT/UTF8
Codec ID/Info : UTF-8 Plain Text
Duration : 1 h 45 min
Bit rate : 6 b/s
Count of elements : 76
Stream size : 4.70 KiB (0%)
Title : forced
Language : Ukrainian
Default : No
Forced : No
Text #4
ID : 11
Format : UTF-8
Codec ID : S_TEXT/UTF8
Codec ID/Info : UTF-8 Plain Text
Duration : 1 h 50 min
Bit rate : 62 b/s
Count of elements : 977
Stream size : 50.4 KiB (0%)
Title : iTunes
Language : Russian
Default : No
Forced : No
Text #5
ID : 12
Format : UTF-8
Codec ID : S_TEXT/UTF8
Codec ID/Info : UTF-8 Plain Text
Duration : 1 h 49 min
Bit rate : 57 b/s
Count of elements : 1010
Stream size : 45.6 KiB (0%)
Language : Russian
Default : No
Forced : No
Text #6
ID : 13
Format : UTF-8
Codec ID : S_TEXT/UTF8
Codec ID/Info : UTF-8 Plain Text
Duration : 1 h 45 min
Bit rate : 40 b/s
Count of elements : 1001
Stream size : 31.4 KiB (0%)
Language : English
Default : No
Forced : No
Text #7
ID : 14
Format : UTF-8
Codec ID : S_TEXT/UTF8
Codec ID/Info : UTF-8 Plain Text
Duration : 1 h 50 min
Bit rate : 31 b/s
Count of elements : 961
Stream size : 25.9 KiB (0%)
Language : Estonian
Default : No
Forced : No
Text #8
ID : 15
Format : UTF-8
Codec ID : S_TEXT/UTF8
Codec ID/Info : UTF-8 Plain Text
Duration : 1 h 50 min
Bit rate : 34 b/s
Count of elements : 1048
Stream size : 28.3 KiB (0%)
Language : Latvian
Default : No
Forced : No
Text #9
ID : 16
Format : UTF-8
Codec ID : S_TEXT/UTF8
Codec ID/Info : UTF-8 Plain Text
Duration : 1 h 50 min
Bit rate : 37 b/s
Count of elements : 992
Stream size : 30.4 KiB (0%)
Language : Lithuanian
Default : No
Forced : No
Text #10
ID : 17
Format : UTF-8
Codec ID : S_TEXT/UTF8
Codec ID/Info : UTF-8 Plain Text
Duration : 1 h 50 min
Bit rate : 34 b/s
Count of elements : 989
Stream size : 27.8 KiB (0%)
Language : French
Default : No
Forced : No
Text #11
ID : 18
Format : UTF-8
Codec ID : S_TEXT/UTF8
Codec ID/Info : UTF-8 Plain Text
Duration : 1 h 51 min
Bit rate : 49 b/s
Count of elements : 1152
Stream size : 40.5 KiB (0%)
Title : SDH
Language : German
Default : No
Forced : No
Text #12
ID : 19
Format : UTF-8
Codec ID : S_TEXT/UTF8
Codec ID/Info : UTF-8 Plain Text
Duration : 1 h 50 min
Bit rate : 35 b/s
Count of elements : 927
Stream size : 28.8 KiB (0%)
Language : Spanish
Default : No
Forced : No
Text #13
ID : 20
Format : UTF-8
Codec ID : S_TEXT/UTF8
Codec ID/Info : UTF-8 Plain Text
Duration : 1 h 46 min
Bit rate : 41 b/s
Count of elements : 1223
Stream size : 32.6 KiB (0%)
Language : Spanish
Default : No
Forced : No
Menu
00:00:00.000 : Chapter 01
00:11:09.502 : Chapter 02
00:20:04.286 : Chapter 03
00:30:26.074 : Chapter 04
00:39:40.253 : Chapter 05
00:50:33.572 : Chapter 06
01:00:03.683 : Chapter 07
01:11:42.089 : Chapter 08
01:19:42.778 : Chapter 09
01:31:43.998 : Chapter 10
01:40:57.301 : Chapter 11
Профиль [ЛС]
Показать сообщения:    

Текущее время: 26-Сен 00:17

Часовой пояс: UTC ± 0



Вы не можете начинать темы
Вы не можете отвечать на сообщения
Вы не можете редактировать свои сообщения
Вы не можете удалять свои сообщения
Вы не можете голосовать в опросах
Вы не можете прикреплять файлы к сообщениям
Вы не можете скачивать файлы