Статистика раздачи
Нет
 
     
 
 

MAGNAT ®

Пол:
Мужской
Стаж:
2 года 5 месяцев
Сообщений:
10823

Откуда: Москва

Отряд самоубийц: Миссия навылет/ The Suicide Squad- Страна: США
Студия: Warner Bros. Pictures, DC Films, Atlas Entertainment, The Safran Company
Жанр: боевик, фантастика, комедия, фэнтези
Год выпуска: 2021
Продолжительность: 2:12:06-Перевод 1: Многоголосый закадровый HDRezka Studio (с цензурой, без цензуры)
Перевод 2: Одноголосый закадровый: Яроцкий
Перевод 3: Субтитры русские (forced, full), английские (full, SDH)
Оригинальная аудиодорожка: английский-Режиссер: Джеймс Ганн / James Gunn-В ролях: Марго Робби, Майкл Рукер, Идрис Эльба, Джон Сина, Юэль Киннаман, Сильвестр Сталлоне, Виола Дэвис, Тайка Вайтити, Нэйтан Филлион, Алиси Брага, Пит Дэвидсон, Джай Кортни, Давид Дастмалчян, Шон Ганн, Флула Борг-Описание: Есть на земле одно гнилое место, откуда мечтают свалить даже самые отъявленные злодеи. Тюрьма Белль Рив — для преступников со сверхспособностями.
Она же — ад. Она же — база рекрутов для суперсекретного проекта «Отряд самоубийц».
Тип релиза: WEB-DL 1080p
Контейнер: MKV
Видео: H.264/MPEG-4 AVC / 1920x1012 / 8 Mbps / 23.976 fps / SDR bt.709
Аудио 1: Russian AAC / 5.1 / 48 kHz / 324 kbps |MVO, HDRezka Studio|
Аудио 2: Russian AAC / 5.1 / 48 kHz / 324 kbps |MVO HDRezka Studio| ненормативная лексика
Аудио 3: Russian AC3 / 5.1 / 48 kHz / 640 kbps |AVO Яроцкий| ненормативная лексика
Аудио 4: English E-AC3+Atmos / 5.1 / 48 kHz / 768 kbps |original|
Аудио 4: English AAC / 2.0 / 48 kHz / 165 kbps |original|
Формат субтитров: softsub (SRT)

MediaInfo

General
Unique ID : 58027065157225670674368087834115995043 (0x2BA79B325B20612147695527BBA875A3)
Complete name : C:\_videoenc\TSC\render\2021 - TheSuicideSquad.1080p.SDR.WEB-dl.mkv
Format : Matroska
Format version : Version 4
File size : 9.61 GiB
Duration : 2 h 12 min
Overall bit rate : 10.4 Mb/s
Movie name : 2021 - The Suicide Squad
Encoded date : UTC 2021-08-17 14:09:10
Writing application : mkvmerge v59.0.0 ('Shining Star') 64-bit
Writing library : libebml v1.4.2 + libmatroska v1.6.4
Video
ID : 1
Format : AVC
Format/Info : Advanced Video Codec
Format profile : High@L4.1
Format settings : CABAC / 4 Ref Frames
Format settings, CABAC : Yes
Format settings, Reference frames : 4 frames
Codec ID : V_MPEG4/ISO/AVC
Duration : 2 h 12 min
Bit rate : 8 192 kb/s
Width : 1 920 pixels
Height : 1 012 pixels
Display aspect ratio : 1.897
Frame rate mode : Constant
Frame rate : 23.976 (24000/1001) FPS
Color space : YUV
Chroma subsampling : 4:2:0
Bit depth : 8 bits
Scan type : Progressive
Bits/(Pixel*Frame) : 0.176
Stream size : 7.56 GiB (79%)
Title : The Suicide Squad
Writing library : x264 core 164 r3065+55M 280faca t_mod_New [(8 & 10)-bit@all X86_64]
Encoding settings : cabac=1 / ref=4 / deblock=1:-1:-1 / analyse=0x3:0x133 / me=tesa / subme=11 / psy=1 / fade_compensate=0.00 / psy_rd=1.00:0.15 / mixed_ref=1 / me_range=24 / chroma_me=1 / trellis=2 / 8x8dct=1 / cqm=0 / deadzone=21,11 / fast_pskip=0 / chroma_qp_offset=-3 / threads=24 / lookahead_threads=6 / sliced_threads=0 / nr=0 / decimate=1 / interlaced=0 / bluray_compat=0 / constrained_intra=0 / fgo=0 / bframes=16 / b_pyramid=2 / b_adapt=2 / b_bias=0 / direct=3 / weightb=1 / open_gop=0 / weightp=2 / keyint=250 / keyint_min=23 / scenecut=40 / intra_refresh=0 / rc_lookahead=60 / rc=2pass / mbtree=1 / bitrate=8192 / ratetol=1.0 / qcomp=0.60 / qpmin=0:0:0 / qpmax=69:69:69 / qpstep=4 / cplxblur=20.0 / qblur=0.5 / vbv_maxrate=62500 / vbv_bufsize=78125 / nal_hrd=none / filler=0 / ip_ratio=1.40 / aq=1:1.00 / aq-sensitivity=10.00 / aq-factor=1.00:1.00:1.00 / aq2=0 / aq3=0
Default : Yes
Forced : No
Color range : Limited
Color primaries : BT.709
Transfer characteristics : BT.709
Matrix coefficients : BT.709
Audio #1
ID : 2
Format : AAC LC
Format/Info : Advanced Audio Codec Low Complexity
Codec ID : A_AAC-2
Duration : 2 h 12 min
Bit rate : 324 kb/s
Channel(s) : 6 channels
Channel layout : C L R Ls Rs LFE
Sampling rate : 48.0 kHz
Frame rate : 46.875 FPS (1024 SPF)
Compression mode : Lossy
Stream size : 306 MiB (3%)
Title : HDREZKA.STUDIO
Language : Russian
Default : Yes
Forced : No
Audio #2
ID : 3
Format : AAC LC
Format/Info : Advanced Audio Codec Low Complexity
Codec ID : A_AAC-2
Duration : 2 h 12 min
Bit rate : 324 kb/s
Channel(s) : 6 channels
Channel layout : C L R Ls Rs LFE
Sampling rate : 48.0 kHz
Frame rate : 46.875 FPS (1024 SPF)
Compression mode : Lossy
Stream size : 306 MiB (3%)
Title : HDREZKA.STUDIO (ненормативная лексика)
Language : Russian
Default : No
Forced : No
Audio #3
ID : 4
Format : AC-3
Format/Info : Audio Coding 3
Commercial name : Dolby Digital
Codec ID : A_AC3
Duration : 2 h 12 min
Bit rate mode : Constant
Bit rate : 640 kb/s
Channel(s) : 6 channels
Channel layout : L R C LFE Ls Rs
Sampling rate : 48.0 kHz
Frame rate : 31.250 FPS (1536 SPF)
Compression mode : Lossy
Stream size : 605 MiB (6%)
Title : Яроцкий | Kiberpank
Language : Russian
Service kind : Complete Main
Default : No
Forced : No
Audio #4
ID : 5
Format : E-AC-3 JOC
Format/Info : Enhanced AC-3 with Joint Object Coding
Commercial name : Dolby Digital Plus with Dolby Atmos
Codec ID : A_EAC3
Duration : 2 h 12 min
Bit rate mode : Constant
Bit rate : 768 kb/s
Channel(s) : 6 channels
Channel layout : L R C LFE Ls Rs
Sampling rate : 48.0 kHz
Frame rate : 31.250 FPS (1536 SPF)
Compression mode : Lossy
Stream size : 726 MiB (7%)
Title : English 5.1
Language : English
Service kind : Complete Main
Default : No
Forced : No
Complexity index : 16
Number of dynamic objects : 15
Bed channel count : 1 channel
Bed channel configuration : LFE
Audio #5
ID : 6
Format : AAC LC
Format/Info : Advanced Audio Codec Low Complexity
Codec ID : A_AAC-2
Duration : 2 h 12 min
Bit rate : 165 kb/s
Channel(s) : 2 channels
Channel layout : L R
Sampling rate : 48.0 kHz
Frame rate : 46.875 FPS (1024 SPF)
Compression mode : Lossy
Stream size : 156 MiB (2%)
Title : English 2.0
Language : English
Default : No
Forced : No
Text #1
ID : 7
Format : UTF-8
Codec ID : S_TEXT/UTF8
Codec ID/Info : UTF-8 Plain Text
Duration : 1 h 57 min
Bit rate : 8 b/s
Count of elements : 191
Stream size : 7.09 KiB (0%)
Title : [Forced]
Language : Russian
Default : Yes
Forced : No
Text #2
ID : 8
Format : UTF-8
Codec ID : S_TEXT/UTF8
Codec ID/Info : UTF-8 Plain Text
Duration : 2 h 11 min
Bit rate : 66 b/s
Count of elements : 1374
Stream size : 63.7 KiB (0%)
Title : [Full]
Language : Russian
Default : No
Forced : No
Text #3
ID : 9
Format : UTF-8
Codec ID : S_TEXT/UTF8
Codec ID/Info : UTF-8 Plain Text
Duration : 2 h 11 min
Bit rate : 40 b/s
Count of elements : 1482
Stream size : 39.0 KiB (0%)
Title : English
Language : English
Default : No
Forced : No
Text #4
ID : 10
Format : UTF-8
Codec ID : S_TEXT/UTF8
Codec ID/Info : UTF-8 Plain Text
Duration : 2 h 11 min
Bit rate : 58 b/s
Count of elements : 2050
Stream size : 55.9 KiB (0%)
Title : English SDH
Language : English
Default : No
Forced : No

Скриншоты

Профиль [ЛС]
Показать сообщения:    

Текущее время: 26-Сен 00:59

Часовой пояс: UTC ± 0



Вы не можете начинать темы
Вы не можете отвечать на сообщения
Вы не можете редактировать свои сообщения
Вы не можете удалять свои сообщения
Вы не можете голосовать в опросах
Вы не можете прикреплять файлы к сообщениям
Вы не можете скачивать файлы