Статистика раздачи
Нет
 
     
 
 

MAGNAT ®

Пол:
Мужской
Стаж:
2 года 5 месяцев
Сообщений:
10823

Откуда: Москва

G. I. Joe. Бросок кобры: Снейк Айз / Snake Eyes: G.I. Joe Origins
Страна: Канада, США
Студия: Di Bonaventura Pictures, Hasbro Inc., Metro-Goldwyn-Mayer (MGM), Paramount Pictures, Skydance Produc
Жанр: фантастика, фэнтези, боевик, триллер, приключения
Год выпуска: 2021
Продолжительность: 02:01:25
Перевод: профессиональный (дублированный) Пифагор
Субтитры: русские (надписи, полные), английские
Оригинальная аудиодорожка: английский
Режиссер: Роберт Швентке / Robert Schwentke
В ролях: Генри Голдинг, Эндрю Кодзи, Урсула Корберо, Харука Абэ, Такэхиро Хира, Питер Менса, Самуэль Финци, Самара Уивинг, Эри Исида, Ико Уайс
Описание:
Загадочный и суровый одиночка Снейк Айз спасает наследника древнего японского клана Арасикагэ, и в знак признательности клан открывает ему тайные знания пути ниндзя. Но главное: Снейк Айз обретает то, к чему так долго стремился, — дом. Однако, когда становятся известны секреты его прошлого, на кону оказываются его честь, преданность и доверие самых близких людей.
Тип релиза: WEB-DL 720p
Контейнер: MKV
Видео: x264, 1280x536, 16:9, ~4000 kbps, 23.976 fps
Аудио 1: EAC3, 48.0 kHz, 448 kbps, 6 ch - русский
Аудио 2: EAC3, 48.0 kHz, 448 kbps, 6 ch - английский
Формат субтитров: softsub (SRT)

MediaInfo

Код:
General
Unique ID : 72767790669738417664175782359596041320 (0x36BE91137FA4B75E524306F5A5808468)
Complete name : Snake.Eyes.G.I.Joe.Origins.2021.720p.WEB-DL.DDP5.1.x264-tG1R0.mkv
Format : Matroska
Format version : Version 4
File size : 4.14 GiB
Duration : 2 h 1 min
Overall bit rate : 4 885 kb/s
Encoded date : UTC 2021-08-19 05:30:49
Writing application : mkvmerge v59.0.0 ('Shining Star') 64-bit
Writing library : libebml v1.4.2 + libmatroska v1.6.4
Video
ID : 1
Format : AVC
Format/Info : Advanced Video Codec
Format profile : High@L3.1
Format settings : CABAC / 6 Ref Frames
Format settings, CABAC : Yes
Format settings, Reference frames : 6 frames
Codec ID : V_MPEG4/ISO/AVC
Duration : 2 h 1 min
Bit rate : 4 000 kb/s
Width : 1 280 pixels
Height : 536 pixels
Display aspect ratio : 2.40:1
Frame rate mode : Constant
Frame rate : 23.976 (24000/1001) FPS
Color space : YUV
Chroma subsampling : 4:2:0
Bit depth : 8 bits
Scan type : Progressive
Bits/(Pixel*Frame) : 0.243
Stream size : 3.38 GiB (82%)
Title : Snake Eyes: G.I. Joe Origins (2021) - tt8404256
Writing library : x264 core 157
Encoding settings : cabac=1 / ref=6 / deblock=1:0:0 / analyse=0x3:0x133 / me=umh / subme=10 / psy=1 / psy_rd=1.00:0.00 / mixed_ref=1 / me_range=24 / chroma_me=1 / trellis=2 / 8x8dct=1 / cqm=0 / deadzone=21,11 / fast_pskip=1 / chroma_qp_offset=-2 / threads=17 / lookahead_threads=2 / sliced_threads=0 / nr=0 / decimate=1 / interlaced=0 / bluray_compat=0 / constrained_intra=0 / bframes=8 / b_pyramid=2 / b_adapt=2 / b_bias=0 / direct=3 / weightb=1 / open_gop=0 / weightp=2 / keyint=192 / keyint_min=96 / scenecut=40 / intra_refresh=0 / rc_lookahead=60 / rc=2pass / mbtree=1 / bitrate=4000 / ratetol=1.0 / qcomp=0.60 / qpmin=0 / qpmax=69 / qpstep=4 / cplxblur=20.0 / qblur=0.5 / vbv_maxrate=4400 / vbv_bufsize=6000 / nal_hrd=none / filler=0 / ip_ratio=1.40 / aq=1:1.00
Language : English
Default : Yes
Forced : No
Audio #1
ID : 2
Format : E-AC-3
Format/Info : Enhanced AC-3
Commercial name : Dolby Digital Plus
Codec ID : A_EAC3
Duration : 2 h 1 min
Bit rate mode : Constant
Bit rate : 448 kb/s
Channel(s) : 6 channels
Channel layout : L R C LFE Ls Rs
Sampling rate : 48.0 kHz
Frame rate : 31.250 FPS (1536 SPF)
Compression mode : Lossy
Stream size : 389 MiB (9%)
Language : Russian
Service kind : Complete Main
Default : Yes
Forced : No
Audio #2
ID : 3
Format : E-AC-3
Format/Info : Enhanced AC-3
Commercial name : Dolby Digital Plus
Codec ID : A_EAC3
Duration : 2 h 1 min
Bit rate mode : Constant
Bit rate : 448 kb/s
Channel(s) : 6 channels
Channel layout : L R C LFE Ls Rs
Sampling rate : 48.0 kHz
Frame rate : 31.250 FPS (1536 SPF)
Compression mode : Lossy
Stream size : 389 MiB (9%)
Language : English
Service kind : Complete Main
Default : No
Forced : No
Text #1
ID : 4
Format : UTF-8
Codec ID : S_TEXT/UTF8
Codec ID/Info : UTF-8 Plain Text
Duration : 1 h 59 min
Bit rate : 1 b/s
Count of elements : 25
Stream size : 1.21 KiB (0%)
Title : Надписи
Language : Russian
Default : Yes
Forced : No
Text #2
ID : 5
Format : UTF-8
Codec ID : S_TEXT/UTF8
Codec ID/Info : UTF-8 Plain Text
Duration : 1 h 59 min
Bit rate : 42 b/s
Count of elements : 797
Stream size : 37.0 KiB (0%)
Title : Полные
Language : Russian
Default : No
Forced : No
Text #3
ID : 6
Format : UTF-8
Codec ID : S_TEXT/UTF8
Codec ID/Info : UTF-8 Plain Text
Duration : 1 h 52 min
Bit rate : 27 b/s
Count of elements : 791
Stream size : 22.5 KiB (0%)
Title : Full
Language : English
Default : No
Forced : No

Скриншоты

Профиль [ЛС]
Показать сообщения:    

Текущее время: 26-Сен 00:40

Часовой пояс: UTC ± 0



Вы не можете начинать темы
Вы не можете отвечать на сообщения
Вы не можете редактировать свои сообщения
Вы не можете удалять свои сообщения
Вы не можете голосовать в опросах
Вы не можете прикреплять файлы к сообщениям
Вы не можете скачивать файлы