Статистика раздачи
Нет
 
     
 
 

MAGNAT ®

Пол:
Мужской
Стаж:
2 года 5 месяцев
Сообщений:
10823

Откуда: Москва

Круэлла
Cruella

Страна: США, Великобритания
Жанр: Комедия, криминал, драма
Год выпуска: 2021
Продолжительность: 02:13:56
Перевод 1: Профессиональный (дублированный) Невафильм / KION
Перевод 2: Любительский (многоголосый закадровый) HDRezka Studio
Перевод 3: Любительский (двухголосый закадровый) Pazl Voice
Субтитры: Русские (forced х2, full х3 iTunes, Focs, PhysKids), украинские (forced), английские, французские, немецкие, нидерландские, датские, финские, норвежские, шведские
Оригинальная аудиодорожка: Английский
Режиссер: Крэйг Гиллеспи / Craig Gillespie
В ролях: Эмма Стоун, Эмма Томпсон, Джоэль Фрай, Пол Уолтер Хаузер, Джон Маккри, Эмили Бичем, Марк Стронг, Кайван Новак, Кирби Хауэлл-Баптист, Джэми Деметриу
Описание: Великобритания, 1960-е годы. Эстелла была необычным ребёнком, и особенно трудно ей было мириться со всякого рода несправедливостью. Вылетев из очередной школы, она с мамой отправляется в Лондон. По дороге они заезжают в особняк известной модельерши по имени Баронесса, где в результате ужасного несчастного случая мама погибает. Добравшись до Лондона, Эстелла знакомится с двумя мальчишками — уличными мошенниками Джаспером и Хорасом.
10 лет спустя та же компания промышляет на улицах британской столицы мелким воровством, но Эстелла никак не может оставить мечту сделать карьеру в мире моды. Хитростью устроившись в фешенебельный универмаг, девушка привлекает внимание Баронессы, и та берёт её к себе в штат дизайнеров.
Тип релиза: BDRip 1080p
Контейнер: MKV
Видео: MPEG-4 AVC, 1080p, 1920:1038 (1.85:1), 17.0 Mbps, 23.976 fps
Аудио 1: АС3, 6 ch, 48 kHz, 640 kbps, 16 bits Русский Dub Невафильм / KION
Аудио 2: АС3, 6 ch, 48 kHz, 448 kbps, 16 bits Русский MVO HDRezka Studio
Аудио 3: АС3, 6 ch, 48 kHz, 448 kbps, 16-bits Русский DVO Pazl Voice
Аудио 4: АС3, 6 ch, 48 kHz, 384 kbps, 16 bits Украинский MVO DniproFilm / HDRezka Studio
Аудио 5: E-AC3, 8 ch, 48 kHz, 1536 kbps, 16 bits Английский
Формат субтитров: SRT, PGS

MediaInfo

x264 [info]: frame I:1505 Avg QP:15.21 size:273745
x264 [info]: frame P:38967 Avg QP:16.71 size:141099
x264 [info]: frame B:152192 Avg QP:17.94 size: 73550
x264 [info]: consecutive B-frames: 1.8% 2.3% 6.3% 11.4% 18.4% 46.5% 8.5% 0.6% 1.5% 1.0% 0.5% 0.1% 0.4% 0.5% 0.0% 0.1% 0.1%
Encoded 192664 frames, 5.953 fps, 17027.99 kb/s, 16312 MB
General
Unique ID : 279952495471471998606560222737829112774 (0xD29CE3AFF1B0E9FB7696271894DEABC6)
Complete name : S:\Cruella.2021.BDRip.1080p.mkv
Format : Matroska
Format version : Version 4
File size : 19.2 GiB
Duration : 2 h 13 min
Overall bit rate : 20.5 Mb/s
Encoded date : UTC 2021-08-22 16:33:04
Writing application : mkvmerge v20.0.0 ('I Am The Sun') 64-bit
Writing library : libebml v1.3.5 + libmatroska v1.4.8
Video
ID : 1
Format : AVC
Format/Info : Advanced Video Codec
Format profile : High@L4.1
Format settings : CABAC / 4 Ref Frames
Format settings, CABAC : Yes
Format settings, Reference frames : 4 frames
Codec ID : V_MPEG4/ISO/AVC
Duration : 2 h 13 min
Bit rate : 17.0 Mb/s
Width : 1 920 pixels
Height : 1 038 pixels
Display aspect ratio : 1.85:1
Frame rate mode : Constant
Frame rate : 23.976 (24000/1001) FPS
Color space : YUV
Chroma subsampling : 4:2:0
Bit depth : 8 bits
Scan type : Progressive
Bits/(Pixel*Frame) : 0.356
Stream size : 15.9 GiB (83%)
Writing library : x264 core 164 r3065+55M 280faca t_mod_New [(8 & 10)-bit@all X86_64]
Encoding settings : cabac=1 / ref=4 / deblock=1:-3:-3 / analyse=0x3:0x133 / me=umh / subme=11 / psy=1 / fade_compensate=0.00 / psy_rd=1.05:0.00 / mixed_ref=1 / me_range=48 / chroma_me=1 / trellis=2 / 8x8dct=1 / cqm=0 / deadzone=21,11 / fast_pskip=0 / chroma_qp_offset=-2 / threads=18 / lookahead_threads=4 / sliced_threads=0 / nr=0 / decimate=0 / interlaced=0 / bluray_compat=0 / constrained_intra=0 / fgo=0 / bframes=16 / b_pyramid=2 / b_adapt=2 / b_bias=0 / direct=3 / weightb=1 / open_gop=0 / weightp=2 / keyint=250 / keyint_min=23 / scenecut=40 / intra_refresh=0 / rc_lookahead=60 / rc=crf / mbtree=0 / crf=18.0000 / qcomp=0.65 / qpmin=0:0:0 / qpmax=69:69:69 / qpstep=4 / vbv_maxrate=62500 / vbv_bufsize=78125 / crf_max=0.0 / nal_hrd=none / filler=0 / ip_ratio=1.30 / pb_ratio=1.20 / aq=3:0.80 / aq-sensitivity=10.00 / aq-factor=1.00:1.00:1.00 / aq2=0 / aq3=0 / zones=5657,9810,crf=16.5,qcomp=0.6/11744,11783,crf=16.5,qcomp=0.6/11913,11972,crf=16.5,qcomp=0.6/12785,13330,crf=16.5,qcomp=0.6/13340,14635,crf=16.5,qcomp=0.6/14900,15053,crf=16.5,qcomp=0.6/15570,15826,crf=16.5,qcomp=0.6/16178,17041,crf=16.5,qcomp=0.6/126124,128065,crf=16.5,qcomp=0.6/165478,170301,crf=16.5,qcomp=0.6/170311,172184,crf=16.5,qcomp=0.6
Language : English
Default : Yes
Forced : No
Color range : Limited
Matrix coefficients : BT.709
Audio #1
ID : 2
Format : AC-3
Format/Info : Audio Coding 3
Commercial name : Dolby Digital
Codec ID : A_AC3
Duration : 2 h 13 min
Bit rate mode : Constant
Bit rate : 640 kb/s
Channel(s) : 6 channels
Channel layout : L R C LFE Ls Rs
Sampling rate : 48.0 kHz
Frame rate : 31.250 FPS (1536 SPF)
Compression mode : Lossy
Stream size : 613 MiB (3%)
Title : Dub Невафильм / KION
Language : Russian
Service kind : Complete Main
Default : Yes
Forced : No
Audio #2
ID : 3
Format : AC-3
Format/Info : Audio Coding 3
Commercial name : Dolby Digital
Codec ID : A_AC3
Duration : 2 h 13 min
Bit rate mode : Constant
Bit rate : 448 kb/s
Channel(s) : 6 channels
Channel layout : L R C LFE Ls Rs
Sampling rate : 48.0 kHz
Frame rate : 31.250 FPS (1536 SPF)
Compression mode : Lossy
Stream size : 429 MiB (2%)
Title : MVO HDRezka Studio
Language : Russian
Service kind : Complete Main
Default : No
Forced : No
Audio #3
ID : 4
Format : AC-3
Format/Info : Audio Coding 3
Commercial name : Dolby Digital
Codec ID : A_AC3
Duration : 2 h 13 min
Bit rate mode : Constant
Bit rate : 448 kb/s
Channel(s) : 6 channels
Channel layout : L R C LFE Ls Rs
Sampling rate : 48.0 kHz
Frame rate : 31.250 FPS (1536 SPF)
Compression mode : Lossy
Stream size : 429 MiB (2%)
Title : DVO Pazl Voice
Language : Russian
Service kind : Complete Main
Default : No
Forced : No
Audio #4
ID : 5
Format : AC-3
Format/Info : Audio Coding 3
Commercial name : Dolby Digital
Codec ID : A_AC3
Duration : 2 h 13 min
Bit rate mode : Constant
Bit rate : 384 kb/s
Channel(s) : 6 channels
Channel layout : L R C LFE Ls Rs
Sampling rate : 48.0 kHz
Frame rate : 31.250 FPS (1536 SPF)
Compression mode : Lossy
Stream size : 368 MiB (2%)
Title : MVO DniproFilm / HDRezka Studio
Language : Ukrainian
Service kind : Complete Main
Default : No
Forced : No
Audio #5
ID : 6
Format : E-AC-3
Format/Info : Enhanced AC-3
Commercial name : Dolby Digital Plus
Format profile : Blu-ray Disc
Codec ID : A_EAC3
Duration : 2 h 13 min
Bit rate mode : Constant
Bit rate : 1 536 kb/s
Channel(s) : 6 channels
Channel(s)_Original : 8 channels
ChannelLayout_Original : L R C LFE Ls Rs Lrs Rrs
Sampling rate : 48.0 kHz
Frame rate : 31.250 FPS (1536 SPF)
Compression mode : Lossy
Stream size : 1.44 GiB (7%)
Language : English
Service kind : Complete Main
Default : No
Forced : No
Text #1
ID : 7
Format : UTF-8
Codec ID : S_TEXT/UTF8
Codec ID/Info : UTF-8 Plain Text
Duration : 2 h 1 min
Bit rate : 2 b/s
Count of elements : 40
Stream size : 2.38 KiB (0%)
Title : forced
Language : Russian
Default : Yes
Forced : No
Text #2
ID : 8
Format : UTF-8
Codec ID : S_TEXT/UTF8
Codec ID/Info : UTF-8 Plain Text
Duration : 2 h 4 min
Bit rate : 7 b/s
Count of elements : 143
Stream size : 7.13 KiB (0%)
Title : forced HDRezka
Language : Russian
Default : No
Forced : No
Text #3
ID : 9
Format : UTF-8
Codec ID : S_TEXT/UTF8
Codec ID/Info : UTF-8 Plain Text
Duration : 2 h 2 min
Bit rate : 2 b/s
Count of elements : 38
Stream size : 1.95 KiB (0%)
Title : forced
Language : Ukrainian
Default : No
Forced : No
Text #4
ID : 10
Format : UTF-8
Codec ID : S_TEXT/UTF8
Codec ID/Info : UTF-8 Plain Text
Duration : 2 h 13 min
Bit rate : 68 b/s
Count of elements : 1528
Stream size : 67.2 KiB (0%)
Title : iTunes
Language : Russian
Default : No
Forced : No
Text #5
ID : 11
Format : UTF-8
Codec ID : S_TEXT/UTF8
Codec ID/Info : UTF-8 Plain Text
Duration : 2 h 6 min
Bit rate : 81 b/s
Count of elements : 1563
Stream size : 75.5 KiB (0%)
Title : Focs
Language : Russian
Default : No
Forced : No
Text #6
ID : 12
Format : UTF-8
Codec ID : S_TEXT/UTF8
Codec ID/Info : UTF-8 Plain Text
Duration : 2 h 8 min
Bit rate : 71 b/s
Count of elements : 1557
Stream size : 66.7 KiB (0%)
Title : PhysKids
Language : Russian
Default : No
Forced : No
Text #7
ID : 13
Format : UTF-8
Codec ID : S_TEXT/UTF8
Codec ID/Info : UTF-8 Plain Text
Duration : 2 h 6 min
Bit rate : 46 b/s
Count of elements : 1576
Stream size : 43.6 KiB (0%)
Language : English
Default : No
Forced : No
Text #8
ID : 14
Format : PGS
Muxing mode : zlib
Codec ID : S_HDMV/PGS
Codec ID/Info : Picture based subtitle format used on BDs/HD-DVDs
Duration : 2 h 13 min
Bit rate : 25.5 kb/s
Count of elements : 2902
Stream size : 24.3 MiB (0%)
Language : French
Default : No
Forced : No
Text #9
ID : 15
Format : PGS
Muxing mode : zlib
Codec ID : S_HDMV/PGS
Codec ID/Info : Picture based subtitle format used on BDs/HD-DVDs
Duration : 2 h 13 min
Bit rate : 26.3 kb/s
Count of elements : 2968
Stream size : 25.0 MiB (0%)
Language : German
Default : No
Forced : No
Text #10
ID : 16
Format : PGS
Muxing mode : zlib
Codec ID : S_HDMV/PGS
Codec ID/Info : Picture based subtitle format used on BDs/HD-DVDs
Duration : 2 h 13 min
Bit rate : 24.0 kb/s
Count of elements : 2510
Stream size : 22.9 MiB (0%)
Language : Dutch
Default : No
Forced : No
Text #11
ID : 17
Format : PGS
Muxing mode : zlib
Codec ID : S_HDMV/PGS
Codec ID/Info : Picture based subtitle format used on BDs/HD-DVDs
Duration : 2 h 13 min
Bit rate : 26.8 kb/s
Count of elements : 2313
Stream size : 25.5 MiB (0%)
Language : Danish
Default : No
Forced : No
Text #12
ID : 18
Format : PGS
Muxing mode : zlib
Codec ID : S_HDMV/PGS
Codec ID/Info : Picture based subtitle format used on BDs/HD-DVDs
Duration : 2 h 13 min
Bit rate : 28.7 kb/s
Count of elements : 3010
Stream size : 27.3 MiB (0%)
Language : Finnish
Default : No
Forced : No
Text #13
ID : 19
Format : PGS
Muxing mode : zlib
Codec ID : S_HDMV/PGS
Codec ID/Info : Picture based subtitle format used on BDs/HD-DVDs
Duration : 2 h 13 min
Bit rate : 25.3 kb/s
Count of elements : 3020
Stream size : 24.1 MiB (0%)
Language : Norwegian
Default : No
Forced : No
Text #14
ID : 20
Format : PGS
Muxing mode : zlib
Codec ID : S_HDMV/PGS
Codec ID/Info : Picture based subtitle format used on BDs/HD-DVDs
Duration : 2 h 13 min
Bit rate : 24.4 kb/s
Count of elements : 2352
Stream size : 23.2 MiB (0%)
Language : Swedish
Default : No
Forced : No
Menu
00:00:00.000 : Chapter 01
00:05:08.266 : Chapter 02
00:15:21.295 : Chapter 03
00:25:48.881 : Chapter 04
00:30:55.103 : Chapter 05
00:34:31.194 : Chapter 06
00:35:42.974 : Chapter 07
00:39:34.998 : Chapter 08
00:42:35.595 : Chapter 09
00:46:27.451 : Chapter 10
00:52:29.396 : Chapter 11
00:58:15.659 : Chapter 12
01:04:44.089 : Chapter 13
01:15:05.126 : Chapter 14
01:17:16.715 : Chapter 15
01:21:10.741 : Chapter 16
01:23:12.738 : Chapter 17
01:26:23.512 : Chapter 18
01:30:43.897 : Chapter 19
01:37:40.813 : Chapter 20
01:47:32.404 : Chapter 21
01:55:29.965 : Chapter 22
02:00:19.629 : Chapter 23
02:02:48.570 : Chapter 24
02:04:32.215 : Chapter 25
02:06:18.696 : Chapter 26
02:07:25.388 : Chapter 27
Профиль [ЛС]
Показать сообщения:    

Текущее время: 26-Сен 00:12

Часовой пояс: UTC ± 0



Вы не можете начинать темы
Вы не можете отвечать на сообщения
Вы не можете редактировать свои сообщения
Вы не можете удалять свои сообщения
Вы не можете голосовать в опросах
Вы не можете прикреплять файлы к сообщениям
Вы не можете скачивать файлы