Статистика раздачи
Нет
 
     
 
 

MAGNAT ®

Пол:
Мужской
Стаж:
2 года 5 месяцев
Сообщений:
10823

Откуда: Москва

Магазинные воришки всего мира / Shoplifters of the World
-
Страна: США
Жанр: Драма, комедия
Год выпуска: 2021
Продолжительность: 01:30:47-Перевод: Профессиональный (дублированный) | (iTunes)
Cубтитры: Английские (SDH)
Оригинальная аудиодорожка: Английский-Режиссёр: Стивен Кижак / Stephen Kijak
В ролях: Хелена Ховард, Эллар Колтрейн, Елена Кампурис, Ник Краузе, Джеймс Блур, Томас Леннон, Джо Манганьелло, Тонатиу, Камерон Мулен, Оливия Луккарди
Описание: Денвер, 1987 год. Узнав о распаде любимой группы The Smiths, компания молодых людей устраивает в честь своих кумиров безумную вечеринку. Но один из парней идет еще дальше: вооруженный пистолетом, он захватывает в заложники персонал Денверской радиостанции.-Тип релиза: BDRemux 1080p
Контейнер: MKV-Видео: MPEG-4 AVC Video 20993 kbps 1080p / 24 fps / 16:9 / High Profile 4.1
Аудио 1: Русский | AC-3, 6 ch, 384 Kbps, 48.0 kHz
Аудио 2: Английский | DTS-HD MA, 6 ch, 4083 Kbps, 48.0 kHz, 24-bit (DTS Core: 5.1 / 48 kHz / 1509 kbps / 24-bit)
Формат субтитров: softsub (SRT)-

MediaInfo

Код:
General
Unique ID : 67215242349436409561208847780663710249 (0x32912F4ECA73042CC8B7D08AAE5AD229)
Complete name : /Volumes/Promise Pegasus/Shoplifters.of.the.World.BDRemux.1080p.mkv
Format : Matroska
Format version : Version 4
File size : 16.1 GiB
Duration : 1 h 30 min
Overall bit rate mode : Variable
Overall bit rate : 25.4 Mb/s
Movie name : Shoplifters of the World BDRemux 1080p
Encoded date : UTC 2021-08-21 14:40:50
Writing application : mkvmerge v53.0.0 ('Fool's Gold') 64-bit
Writing library : libebml v1.4.1 + libmatroska v1.6.2
Video
ID : 1
Format : AVC
Format/Info : Advanced Video Codec
Format profile : High@L4.1
Format settings : CABAC / 4 Ref Frames
Format settings, CABAC : Yes
Format settings, Reference frames : 4 frames
Format settings, GOP : M=3, N=12
Codec ID : V_MPEG4/ISO/AVC
Duration : 1 h 30 min
Bit rate mode : Variable
Bit rate : 20.9 Mb/s
Maximum bit rate : 36.0 Mb/s
Width : 1 920 pixels
Height : 1 080 pixels
Display aspect ratio : 16:9
Frame rate mode : Constant
Frame rate : 24.000 FPS
Color space : YUV
Chroma subsampling : 4:2:0
Bit depth : 8 bits
Scan type : Progressive
Bits/(Pixel*Frame) : 0.420
Stream size : 13.2 GiB (82%)
Language : English
Default : Yes
Forced : No
Audio #1
ID : 2
Format : AC-3
Format/Info : Audio Coding 3
Commercial name : Dolby Digital
Codec ID : A_AC3
Duration : 1 h 30 min
Bit rate mode : Constant
Bit rate : 384 kb/s
Channel(s) : 6 channels
Channel layout : L R C LFE Ls Rs
Sampling rate : 48.0 kHz
Frame rate : 31.250 FPS (1536 SPF)
Compression mode : Lossy
Stream size : 249 MiB (2%)
Title : Russian Dub iTunes
Language : Russian
Service kind : Complete Main
Default : Yes
Forced : No
Audio #2
ID : 3
ID in the original source medium : 4352 (0x1100)
Format : DTS XLL
Format/Info : Digital Theater Systems
Commercial name : DTS-HD Master Audio
Codec ID : A_DTS
Duration : 1 h 30 min
Bit rate mode : Variable
Bit rate : 4 083 kb/s
Channel(s) : 6 channels
Channel layout : C L R Ls Rs LFE
Sampling rate : 48.0 kHz
Frame rate : 93.750 FPS (512 SPF)
Bit depth : 24 bits
Compression mode : Lossless
Stream size : 2.59 GiB (16%)
Title : English Original
Language : English
Default : No
Forced : No
Original source medium : Blu-ray
Text
ID : 4
Format : UTF-8
Codec ID : S_TEXT/UTF8
Codec ID/Info : UTF-8 Plain Text
Duration : 1 h 29 min
Bit rate : 65 b/s
Count of elements : 1438
Stream size : 43.4 KiB (0%)
Title : English SDH
Language : English
Default : No
Forced : No
Menu
00:00:00.000 : Chapter 01
00:08:35.583 : Chapter 02
00:15:26.375 : Chapter 03
00:23:03.291 : Chapter 04
00:39:19.708 : Chapter 05
00:59:19.666 : Chapter 06
01:13:16.416 : Chapter 07
01:24:04.958 : Chapter 08

Скриншоты

Профиль [ЛС]
Показать сообщения:    

Текущее время: 26-Сен 00:23

Часовой пояс: UTC ± 0



Вы не можете начинать темы
Вы не можете отвечать на сообщения
Вы не можете редактировать свои сообщения
Вы не можете удалять свои сообщения
Вы не можете голосовать в опросах
Вы не можете прикреплять файлы к сообщениям
Вы не можете скачивать файлы