Статистика раздачи
Нет
 
     
 
 

MAGNAT ®

Пол:
Мужской
Стаж:
2 года 5 месяцев
Сообщений:
10823

Откуда: Москва

-Легенда о Зелёном Рыцаре / The Green Knight- -Страна: Ирландия, Канада, США, Великобритания
Жанр: фэнтези, приключения, драма
Год выпуска: 2021
Продолжительность: 02:09:35-Перевод: Профессиональный (многоголосый закадровый) Jaskier
Субтитры: нет
Оригинальная аудиодорожка: нет-Режиссер: Дэвид Лоури / David Lowery-В ролях: Анаис Риццо, Джо Андерсон, Дев Патель, Алисия Викандер, Ноэль Браун, Сарита Чоудхури, Нита Мишра, Тара МакДонах, Афина Фриззелл, Шон Харрис, Кейт Дики, Крис Макхаллем, Ралф Айнесон, Брендан Конрой, Доннча Краули, Барри Кеоган-Описание: Король празднует Рождество в замке в окружении двора и верных рыцарей, куда вдруг заявляется загадочный Зелёный Рыцарь и предлагает принять его вызов. Любой из присутствующих может нанести ему удар, но через год и один день он должен будет встретится с Зелёным Рыцарем в зелёной часовне в девяти днях пути на север и принять удар в ответ. Молодой сэр Гавейн, племянник и единственный наследник короля, вызывается на поединок и отрубает странному гостю голову. Но тот, приставив голову на место, напоминает об уговоре и удаляется. Год спустя верный данному слову сэр Гавейн отправляется навстречу судьбе в полное опасностей путешествие.
Качество видео: WEB-DLRip-AVC
Формат видео: MKV-Видео: MPEG-4 AVC, 902x488 (1.85:1), 23.976 fps, ~1310 kbps avg, 0.128 bit/pixel
Аудио: 48 kHz, AC3 Dolby Digital, 2/0 (L,R) ch, ~192 kbps avg-

MediaInfo

Код:
Complete name : F:\Легенда о Зелёном Рыцаре (2021) WEB-DLRip-AVC_ivanes.mkv
Format : Matroska
Format version : Version 2
File size : 1.39 GiB
Duration : 2 h 9 min
Overall bit rate : 1 533 kb/s
Movie name : Легенда о Зелёном Рыцаре (2021) WEB-DLRip-AVC_ivanes
Encoded date : UTC 2021-08-25 16:37:10
Writing application : mkvmerge v4.4.0 ('Die Wiederkehr') сборка от Jan 3 2011 21:40:45
Writing library : libebml v1.0.0 + libmatroska v1.0.0
Cover : Yes
Attachments : cover.jpg
Video
ID : 1
Format : AVC
Format/Info : Advanced Video Codec
Format profile : High@L4.1
Format settings : CABAC / 14 Ref Frames
Format settings, CABAC : Yes
Format settings, Reference : 14 frames
Codec ID : V_MPEG4/ISO/AVC
Duration : 2 h 9 min
Bit rate : 1 310 kb/s
Width : 902 pixels
Height : 488 pixels
Display aspect ratio : 1.85:1
Frame rate mode : Constant
Frame rate : 23.976 (24000/1001) FPS
Color space : YUV
Chroma subsampling : 4:2:0
Bit depth : 8 bits
Scan type : Progressive
Bits/(Pixel*Frame) : 0.124
Stream size : 1.19 GiB (85%)
Title : Rip by ivanes
Writing library : x264 core 164 r3065+55M 280faca t_mod_New [(8 & 10)-bit@all X86_64]
Encoding settings : cabac=1 / ref=14 / deblock=1:-3:-3 / analyse=0x3:0x113 / me=umh / subme=10 / psy=1 / fade_compensate=0.00 / psy_rd=1.00:0.00 / mixed_ref=1 / me_range=32 / chroma_me=1 / trellis=2 / 8x8dct=1 / cqm=0 / deadzone=21,11 / fast_pskip=0 / chroma_qp_offset=-2 / threads=16 / lookahead_threads=3 / sliced_threads=0 / nr=0 / decimate=1 / interlaced=0 / bluray_compat=0 / constrained_intra=0 / fgo=0 / bframes=14 / b_pyramid=2 / b_adapt=2 / b_bias=0 / direct=1 / weightb=1 / open_gop=0 / weightp=2 / keyint=240 / keyint_min=23 / scenecut=40 / intra_refresh=0 / rc_lookahead=60 / rc=crf / mbtree=1 / crf=16.6000 / qcomp=0.65 / qpmin=0:0:0 / qpmax=69:69:69 / qpstep=4 / vbv_maxrate=50000 / vbv_bufsize=62500 / crf_max=0.0 / nal_hrd=none / filler=0 / ip_ratio=1.35 / aq=1:1.00 / aq-sensitivity=10.00 / aq-factor=1.00:1.00:1.00 / aq2=0 / aq3=0
Default : Yes
Forced : No
Statistics Tags Issue : mkvmerge v42.0.0 ('Overtime') 64-bit 2021-08-25 16:36:28 / mkvmerge v4.4.0 ('Die Wiederkehr') сборка от Jan 3 2011 21:40:45 2021-08-25 16:37:10
FromStats_BitRate : 1346992
FromStats_Duration : 02:09:45.194000000
FromStats_FrameCount : 186658
FromStats_StreamSize : 1310824874
Audio
ID : 2
Format : AC-3
Format/Info : Audio Coding 3
Commercial name : Dolby Digital
Codec ID : A_AC3
Duration : 2 h 9 min
Bit rate mode : Constant
Bit rate : 192 kb/s
Channel(s) : 2 channels
Channel layout : L R
Sampling rate : 48.0 kHz
Frame rate : 31.250 FPS (1536 SPF)
Compression mode : Lossy
Stream size : 178 MiB (13%)
Title : Jaskier
Language : Russian
Service kind : Complete Main
Default : Yes
Forced : No

Скриншоты

Профиль [ЛС]
Показать сообщения:    

Текущее время: 26-Сен 00:46

Часовой пояс: UTC ± 0



Вы не можете начинать темы
Вы не можете отвечать на сообщения
Вы не можете редактировать свои сообщения
Вы не можете удалять свои сообщения
Вы не можете голосовать в опросах
Вы не можете прикреплять файлы к сообщениям
Вы не можете скачивать файлы