Статистика раздачи
Размер:  1,45 GB   |    Зарегистрирован:  7 месяцев 10 дней   |    Скачан:  0 раз
Сидов:  10  [  0 KB/s  ]   Личеров:  1  [  0 KB/s  ]  
 
     
 
 

солнышко ®

Пол:
Не указан
Стаж:
8 месяцев 28 дней
Сообщений:
565

22 мили / Mile 22
Страна: Китай, США
Жанр: боевик, приключения, триллер
Год выпуска: 2018
Продолжительность: 01:34:40

Перевод: Авторский (одноголосый закадровый) Юрий Живов
Субтитры: нет
Режиссер: Питер Берг / Peter Berg

В ролях: Марк Уолберг, Лорен Коэн, Ико Уайс, Джон Малкович, Ронда Раузи, Карло Сиэль, Сэм Медина, Кит А. Болден
Описание: В другое время он бы с удовольствием прогулялся на такое расстояние, наслаждаясь пейзажами Индонезии. Но сейчас не до красот природы. Каждый метр пути смертельно опасен. Ловушка или засада может быть где угодно. Свидетеля, которого он сопровождает в аэропорт, надо доставить живым. Он даст показания, которые помогут раскрыть одну из крупнейших в мире коррупционных схем. Полжизни он отдал службе. Подобные задания выполнял не раз. Но это оказывается сложным даже для него. Теперь эти двое должны быть заодно, от этого зависит, есть ли у них надежда. Маршрут следования был разработан на самом верху. Где он пролегает, знают единицы. Несмотря на строжайшую секретность, нашёлся предатель. Дорога до самолёта стала труднопреодолимой. Но приказ должен быть выполнен. Лучше самому подставиться под пули. Чем позволить убить своего спутника. Последние километры – самые сложные. Любой случайный попутчик может оказаться не тем, на кого хочет быть похож. Поначалу возненавидевшие один другого напарники стали чувствовать опасность, как звери. Покинуть азиатские джунгли они смогут только вдвоём. Иначе смерть неизбежна в ближайшее время, и она будет мучительной....
Сэмпл: http://multi-up.com/1230720
Качество видео: BDRip (Исходник Mile.22.2018.Remux.mkv)
Формат видео: AVI
Видео: XviD 73, 720x304, (2,35:1), 23,976 fps, 1741 Кбит/с, 8 бит, 0.33 bit/pixel
Аудио: Русский (АС3, 6 ch (Front: L C R, Side: L R, LFE), 48,0 KHz, 448 Kbps

MediaInfo

Общее
Полное имя : E:\22 мили (боевик, триллер 2018 год).avi
Формат : AVI
Формат/Информация : Audio Video Interleave
Размер файла : 1,45 Гбайт
Продолжительность : 1 ч. 34 м.
Общий поток : 2198 Кбит/сек
Программа кодирования : VirtualDubMod 1.5.10.3 | www.virtualdub-fr.org || (build 2550/release)
Библиотека кодирования : VirtualDubMod build 2550/release
Видео
Идентификатор : 0
Формат : MPEG-4 Visual
Профиль формата : Advanced Simple@L5
Параметр BVOP формата : 2
Параметр QPel формата : Нет
Параметр GMC формата : Без точки перехода
Параметр матрицы формата : Выборочная
Идентификатор кодека : XVID
Идентификатор кодека/Подсказка : XviD
Продолжительность : 1 ч. 34 м.
Битрейт : 1741 Кбит/сек
Ширина : 720 пикселей
Высота : 304 пикселя
Соотношение сторон : 2,35:1
Частота кадров : 23,976 (23976/1000) кадра/сек
Цветовое пространство : YUV
Субдискретизация насыщенности : 4:2:0
Битовая глубина : 8 бит
Тип развёртки : Прогрессивная
Метод сжатия : С потерями
Бит/(Пиксели*Кадры) : 0.332
Размер потока : 1,15 Гбайт (79%)
Библиотека кодирования : XviD 73
Аудио
Идентификатор : 1
Формат : AC-3
Формат/Информация : Audio Coding 3
Расширение режима : CM (complete main)
Параметр Endianness формата : Big
Идентификатор кодека : 2000
Продолжительность : 1 ч. 34 м.
Вид битрейта : Постоянный
Битрейт : 448 Кбит/сек
Каналы : 6 каналов
Расположение каналов : Front: L C R, Side: L R, LFE
Частота : 48,0 КГц
Частота кадров : 31,250 кадров/сек (1536 spf)
Метод сжатия : С потерями
Размер потока : 303 Мбайт (20%)
Выравнивание : Разделение по промежуткам
Продолжительность промежутка : 42 мс. (1,00 видеокадр)
Время предзагрузки промежутка : 500 мс.

Скриншот c названием фильма

Скриншоты

[cybertorrent.net].t2367.torrent 
Торрент: Зарегистрирован [ 2019-04-29 16:03 ] · F45A07D9DD8A05D57925F984F73CD3DAB2A478DF

Скачать .torrent

Скачать

15 KB

Статус: проверено
Скачан: 0 раз
Размер: 1,45 GB
terms.php
Профиль [ЛС]
Показать сообщения:    

Текущее время: 10-Дек 09:13

Часовой пояс: UTC ± 0



Вы не можете начинать темы
Вы не можете отвечать на сообщения
Вы не можете редактировать свои сообщения
Вы не можете удалять свои сообщения
Вы не можете голосовать в опросах
Вы не можете прикреплять файлы к сообщениям
Вы можете скачивать файлы