Статистика раздачи
Размер:  2,32 GB   |    Зарегистрирован:  6 месяцев 22 дня   |    Скачан:  0 раз

Полного источника не было: Никогда

 
     
 
 

солнышко ®

Пол:
Не указан
Стаж:
8 месяцев 9 дней
Сообщений:
565

Ловушка времени
Time Trap
«Побег в будущее»- Страна: США
Жанр: фантастика, боевик, приключения
Год выпуска: 2017
Продолжительность: 01:27:32-Перевод 1: Профессиональный (дублированный) iTunes
Субтитры: Русские (форсированные), английские
Оригинальная аудиодорожка: английский-Режиссер:
Марк Деннис, Бен Фостер / Mark Dennis, Ben Foster
В ролях: Брианна Хоуи, Эндрю Уилсон, Кэссиди Гиффорд, Рейли МакКлендон, Оливия Драгусевич, Макс Райт, Ганс Марреро, Рич Скидмор, Крис Старджон, Гопал Бидари-Описание:Группа студентов отправляется в пещеры Техаса, чтобы найти своего преподавателя, пропавшего без вести. Несмотря на решение спасателей прекратить все поиски, ребята не теряют надежду, что он жив и нуждается в помощи. Они уверены, что таинственное исчезновение их учителя как-то связано с его необычной теорией о существовании источника вечной молодости где-то в этих местах. Обнаружив загадочный пещерный тоннель, группа пытается проникнуть в него. Кто-то из друзей замечает, что время начинает меняться каким-то волшебным образом. Оно тянется намного медленнее, чем на поверхности. Когда они спускаются ниже, с героями начинают происходить ещё более странные события…-Sample

IMDb: 6.60 (6383)
-
Тип релиза: BDRip-AVC BDRemux 1080p
Контейнер: MKV
Видео : AVC 2953 kb/s 1072 x 456 (2.351) 23.976 fps
Аудио 1: Dolby Digital Audio Russian 384 kbps 5.1 / 48 kHz / 384 kbps iTunes
Аудио 2: AC-3 448 kb/s 6 channels, 48.0 kHz Eng

MI | Log

Log

x264 [info]: profile Progressive High, level 4.1, 4:2:0, 8-bit
x264 [info]: frame I:894 Avg QP:14.52 size: 74619
x264 [info]: frame P:28620 Avg QP:16.13 size: 30101
x264 [info]: frame B:96414 Avg QP:18.49 size: 10480
x264 [info]: consecutive B-frames: 2.6% 3.1% 11.6% 19.2% 16.7% 35.2% 5.1% 1.6% 1.3% 1.1% 1.2% 1.2%
x264 [info]: mb I I16..4: 6.1% 80.7% 13.2%
x264 [info]: mb P I16..4: 1.1% 19.8% 1.8% P16..4: 26.7% 32.6% 13.6% 2.3% 0.2% skip: 2.0%
x264 [info]: mb B I16..4: 0.2% 2.2% 0.2% B16..8: 33.9% 24.3% 4.9% direct: 7.8% skip:26.5% L0:46.2% L1:41.5% BI:12.3%
x264 [info]: 8x8 transform intra:86.6% inter:60.5%
x264 [info]: direct mvs spatial:100.0% temporal:0.0%
x264 [info]: coded y,uvDC,uvAC intra: 90.5% 89.2% 73.4% inter: 31.0% 33.0% 12.1%
x264 [info]: i16 v,h,dc,p: 16% 10% 6% 69%
x264 [info]: i8 v,h,dc,ddl,ddr,vr,hd,vl,hu: 10% 8% 9% 9% 13% 12% 13% 12% 14%
x264 [info]: i4 v,h,dc,ddl,ddr,vr,hd,vl,hu: 13% 8% 7% 8% 15% 13% 13% 10% 12%
x264 [info]: i8c dc,h,v,p: 48% 21% 15% 15%
x264 [info]: Weighted P-Frames: Y:13.6% UV:9.5%
x264 [info]: ref P L0: 47.5% 11.0% 16.2% 6.3% 5.1% 3.6% 3.2% 2.0% 1.9% 1.4% 1.6% 0.2% 0.0%
x264 [info]: ref B L0: 70.8% 11.7% 6.1% 3.4% 2.4% 2.0% 1.6% 1.1% 0.7% 0.3%
x264 [info]: ref B L1: 94.5% 5.5%
x264 [info]: kb/s:2952.83
x264 [total]: encoded 125928 frames, 13.32 fps, 2952.83 kb/s
Format : Matroska
Format version : Version 4
File size : 2.32 GiB
Duration : 1 h 27 min
Overall bit rate : 3 787 kb/s
Encoded date : UTC 2019-04-28 21:57:25
Writing application : mkvmerge v8.2.0 ('World of Adventure') 64bit
Writing library : libebml v1.3.1 + libmatroska v1.4.2
Video
ID : 1
Format : AVC
Format/Info : Advanced Video Codec
Format profile : High@L4.1
Format settings : CABAC / 11 Ref Frames
Format settings, CABAC : Yes
Format settings, RefFrames : 11 frames
Codec ID : V_MPEG4/ISO/AVC
Duration : 1 h 27 min
Bit rate : 2 953 kb/s
Width : 1 072 pixels
Height : 456 pixels
Display aspect ratio : 2.35:1
Frame rate mode : Constant
Frame rate : 23.976 (24000/1001) FPS
Color space : YUV
Chroma subsampling : 4:2:0
Bit depth : 8 bits
Scan type : Progressive
Bits/(Pixel*Frame) : 0.252
Stream size : 1.81 GiB (78%)
Title : Time Trap (2017) [rutracker.org]
Writing library : x264 core 157 r2969 d4099dd
Encoding settings : cabac=1 / ref=11 / deblock=1:-3:-2 / analyse=0x3:0x133 / me=umh / subme=11 / psy=1 / psy_rd=1.00:0.05 / mixed_ref=1 / me_range=48 / chroma_me=1 / trellis=2 / 8x8dct=1 / cqm=0 / deadzone=21,11 / fast_pskip=0 / chroma_qp_offset=-3 / threads=12 / lookahead_threads=3 / sliced_threads=0 / nr=0 / decimate=1 / interlaced=0 / bluray_compat=0 / constrained_intra=0 / bframes=11 / b_pyramid=2 / b_adapt=2 / b_bias=0 / direct=3 / weightb=1 / open_gop=0 / weightp=2 / keyint=250 / keyint_min=23 / scenecut=40 / intra_refresh=0 / rc_lookahead=60 / rc=crf / mbtree=0 / crf=17.5 / qcomp=0.60 / qpmin=0 / qpmax=69 / qpstep=4 / vbv_maxrate=50000 / vbv_bufsize=62500 / crf_max=0.0 / nal_hrd=none / filler=0 / ip_ratio=1.40 / pb_ratio=1.30 / aq=3:0.90
Language : English
Default : Yes
Forced : No
Audio #1
ID : 2
Format : AC-3
Format/Info : Audio Coding 3
Commercial name : Dolby Digital
Codec ID : A_AC3
Duration : 1 h 27 min
Bit rate mode : Constant
Bit rate : 384 kb/s
Channel(s) : 6 channels
Channel layout : L R C LFE Ls Rs
Sampling rate : 48.0 kHz
Frame rate : 31.250 FPS (1536 SPF)
Bit depth : 16 bits
Compression mode : Lossy
Stream size : 240 MiB (10%)
Title : DUB [iTunes]
Language : Russian
Service kind : Complete Main
Default : Yes
Forced : No
Audio #2
ID : 3
Format : AC-3
Format/Info : Audio Coding 3
Commercial name : Dolby Digital
Codec ID : A_AC3
Duration : 1 h 27 min
Bit rate mode : Constant
Bit rate : 448 kb/s
Channel(s) : 6 channels
Channel layout : L R C LFE Ls Rs
Sampling rate : 48.0 kHz
Frame rate : 31.250 FPS (1536 SPF)
Bit depth : 16 bits
Compression mode : Lossy
Stream size : 281 MiB (12%)
Title : Original
Language : English
Service kind : Complete Main
Default : No
Forced : No
Text #1
ID : 4
Format : UTF-8
Codec ID : S_TEXT/UTF8
Codec ID/Info : UTF-8 Plain Text
Duration : 1 h 24 min
Bit rate : 0 b/s
Count of elements : 9
Stream size : 378 Bytes (0%)
Title : Forced [[iTunes]]
Language : Russian
Default : Yes
Forced : No
Text #2
ID : 5
Format : UTF-8
Codec ID : S_TEXT/UTF8
Codec ID/Info : UTF-8 Plain Text
Duration : 1 h 24 min
Bit rate : 0 b/s
Count of elements : 13
Stream size : 558 Bytes (0%)
Title : Forced [HDRezka Studio]
Language : Russian
Default : No
Forced : No
Text #3
ID : 6
Format : UTF-8
Codec ID : S_TEXT/UTF8
Codec ID/Info : UTF-8 Plain Text
Duration : 1 h 20 min
Bit rate : 61 b/s
Count of elements : 1306
Stream size : 36.4 KiB (0%)
Title : Eng
Language : English
Default : No
Forced : No
Menu
00:00:00.000 : en:00:00:00.000
00:06:52.036 : en:00:06:52.036
00:14:31.953 : en:00:14:31.953
00:20:53.669 : en:00:20:53.669
00:29:03.282 : en:00:29:03.282
00:39:50.887 : en:00:39:50.887
00:46:40.922 : en:00:46:40.922
00:54:09.454 : en:00:54:09.454
01:03:29.681 : en:01:03:29.681
01:08:57.675 : en:01:08:57.675
01:15:13.634 : en:01:15:13.634
01:21:58.454 : en:01:21:58.454

Скриншоты


[cybertorrent.net].t2365.torrent 
Торрент: Зарегистрирован [ 2019-04-29 16:03 ] · 1DC69CA6B6A4FF45160006E31D1F33DD8CC02676

Скачать .torrent

Скачать

12 KB

Статус: проверено
Скачан: 0 раз
Размер: 2,32 GB
terms.php
Профиль [ЛС]
Показать сообщения:    

Текущее время: 22-Ноя 07:59

Часовой пояс: UTC ± 0



Вы не можете начинать темы
Вы не можете отвечать на сообщения
Вы не можете редактировать свои сообщения
Вы не можете удалять свои сообщения
Вы не можете голосовать в опросах
Вы не можете прикреплять файлы к сообщениям
Вы можете скачивать файлы