Статистика раздачи
Размер:  1,89 GB   |    Зарегистрирован:  6 месяцев 14 дней   |    Скачан:  0 раз

Полного источника не было: Никогда

 
     
 
 

serzh ®

Пол:
Не указан
Стаж:
8 месяцев 1 день
Сообщений:
384

Последняя надежда / Def-Con 4
Страна: Канада
Студия: Salter Street Films
Жанр: фантастика, боевик, постапокалипсис
Год выпуска: 1985
Продолжительность: 01:24:29
Перевод: Любительский (одноголосый закадровый) Андрей Бессонов
Субтитры: нет
Оригинальная аудиодорожка: английский
Режиссер: Пол Донован / Paul Donovan
В ролях: Ленор Занн (Lenore Zann), Мори Чайкин (Maury Chaykin), Кейт Линч (Kate Lynch), Кевин Кинг (Kevin King), Тим Чоут (Tim Choate)
Описание: Три астронавта с американской космической станции становятся свидетелями, начавшейся на Земле, ядерной войны. Через несколько месяцев, из-за неполадок на станции, они вынуждены аварийно приземлиться на бывшей территории США. Некогда великой державы больше не существует - на радиоактивных пространствах изредка попадаются отдельные выжившие, а власть в округе принадлежит бандам. Здесь выживают только сильнейшие, в этом смогут убедиться астронавты сразу после посадки...
Доп. информация: Русская дорожка из этой раздачи (спасибо Translator).

Сэмпл: http://multi-up.com/1230609
Качество видео: DVDRip-AVC
Формат видео: MKV
Видео: 702x576 (748x576 anamorphic, 4:3), 25.0 fps, x264 core 157, ~2,779 kbps, 8 bit, 0.275 bit/pixel
Аудио: Russian, 48.0 KHz, AC3, 2 ch, 192 Kbps (Андрей Бессонов)
Аудио 2: English, 48.0 KHz, AC3, 2 ch, 224 Kbps

MediaInfo

General
Unique ID : 245355263912148421531812596585623081184 (0xB895B4797298B2596104E086B54E50E0)
Complete name : Def-Con.4.1985.DVDRip.Rus.Eng.x264-TMNEMONIC.mkv
Format : Matroska
Format version : Version 4
File size : 1.89 GiB
Duration : 1 h 24 min
Overall bit rate : 3 197 kb/s
Movie name : Def-Con 4 (1985)
Encoded date : UTC 2019-04-27 20:00:47
Writing application : mkvmerge v33.1.0 ('Primrose') 64-bit
Writing library : libebml v1.3.7 + libmatroska v1.5.0
Video
ID : 1
Format : AVC
Format/Info : Advanced Video Codec
Format profile : High@L4.1
Format settings : CABAC / 16 Ref Frames
Format settings, CABAC : Yes
Format settings, Reference frames : 16 frames
Codec ID : V_MPEG4/ISO/AVC
Duration : 1 h 24 min
Bit rate : 2 779 kb/s
Width : 702 pixels
Height : 576 pixels
Display aspect ratio : 4:3
Frame rate mode : Constant
Frame rate : 25.000 FPS
Color space : YUV
Chroma subsampling : 4:2:0
Bit depth : 8 bits
Scan type : Progressive
Bits/(Pixel*Frame) : 0.275
Stream size : 1.64 GiB (87%)
Title : [x264][TMNEMONIC]
Writing library : x264 core 157 r2935 545de2f
Encoding settings : cabac=1 / ref=16 / deblock=1:-1:-1 / analyse=0x3:0x133 / me=umh / subme=10 / psy=1 / psy_rd=1.00:0.15 / mixed_ref=1 / me_range=24 / chroma_me=1 / trellis=2 / 8x8dct=1 / cqm=0 / deadzone=21,11 / fast_pskip=1 / chroma_qp_offset=-3 / threads=18 / lookahead_threads=3 / sliced_threads=0 / nr=0 / decimate=1 / interlaced=0 / bluray_compat=0 / constrained_intra=0 / bframes=8 / b_pyramid=2 / b_adapt=2 / b_bias=0 / direct=3 / weightb=1 / open_gop=0 / weightp=2 / keyint=250 / keyint_min=25 / scenecut=40 / intra_refresh=0 / rc_lookahead=60 / rc=crf / mbtree=1 / crf=17.5 / qcomp=0.60 / qpmin=0 / qpmax=69 / qpstep=4 / vbv_maxrate=62500 / vbv_bufsize=78125 / crf_max=0.0 / nal_hrd=none / filler=0 / ip_ratio=1.40 / aq=1:1.00
Default : Yes
Forced : No
Color range : Limited
Color primaries : BT.601 PAL
Transfer characteristics : BT.709
Matrix coefficients : BT.601
Audio #1
ID : 2
Format : AC-3
Format/Info : Audio Coding 3
Commercial name : Dolby Digital
Codec ID : A_AC3
Duration : 1 h 24 min
Bit rate mode : Constant
Bit rate : 192 kb/s
Channel(s) : 2 channels
Channel layout : L R
Sampling rate : 48.0 kHz
Frame rate : 31.250 FPS (1536 SPF)
Bit depth : 16 bits
Compression mode : Lossy
Stream size : 116 MiB (6%)
Title : [2.0][Андрей Бессонов]
Language : Russian
Service kind : Complete Main
Default : Yes
Forced : No
Audio #2
ID : 3
Format : AC-3
Format/Info : Audio Coding 3
Commercial name : Dolby Digital
Codec ID : A_AC3
Duration : 1 h 24 min
Bit rate mode : Constant
Bit rate : 224 kb/s
Channel(s) : 2 channels
Channel layout : L R
Sampling rate : 48.0 kHz
Frame rate : 31.250 FPS (1536 SPF)
Bit depth : 16 bits
Compression mode : Lossy
Stream size : 135 MiB (7%)
Title : [2.0]
Language : English
Service kind : Complete Main
Default : No
Forced : No
Menu
00:00:00.000 : :Chapter 1
00:07:25.680 : :Chapter 2
00:16:47.400 : :Chapter 3
00:22:52.200 : :Chapter 4
00:33:04.560 : :Chapter 5
00:43:13.200 : :Chapter 6
00:49:51.600 : :Chapter 7
00:58:47.160 : :Chapter 8
01:04:28.800 : :Chapter 9
01:10:23.760 : :Chapter 10
01:15:51.240 : :Chapter 11
01:20:00.240 : :Chapter 12

Скриншот c названием фильма

[cybertorrent.net].t2358.torrent 
Торрент: Зарегистрирован [ 2019-04-29 16:03 ] · EF19F7CA2618AB36821F44A50434F44EDCA49ABF

Скачать .torrent

Скачать

76 KB

Статус: проверено
Скачан: 0 раз
Размер: 1,89 GB
terms.php
Профиль ЛС
Показать сообщения:    

Текущее время: 14-Ноя 04:06

Часовой пояс: UTC ± 0



Вы не можете начинать темы
Вы не можете отвечать на сообщения
Вы не можете редактировать свои сообщения
Вы не можете удалять свои сообщения
Вы не можете голосовать в опросах
Вы не можете прикреплять файлы к сообщениям
Вы можете скачивать файлы