Статистика раздачи
Размер:  1,51 GB   |    Зарегистрирован:  6 месяцев 23 дня   |    Скачан:  0 раз

Полного источника не было: Никогда

 
     
 
 

serzh ®

Пол:
Не указан
Стаж:
8 месяцев 10 дней
Сообщений:
384

Возвращение мушкетеров / The Return of the Musketeers
«Swashbuckling action, comedy capers and rollicking adventures, bigger and better than ever. They're back... all for one and one for all!»
Страна: Великобритания, Франция, Испания
Жанр: Комедия, приключения
Год выпуска: 1989
Продолжительность: 01:42:17
Перевод: Авторский (одноголосый закадровый) Василий Горчаков
Субтитры: нет
Режиссер: Ричард Лестер / Richard Lester
В ролях: Майкл Йорк, Оливер Рид, Фрэнк Финлей, Си Томас Хауэлл, Ким Кэтролл, Джеральдин
Чаплин, Рой Киннер, Кристофер Ли, Филипп Нуаре, Ричард Чемберлен
Описание: В новой экранизации романа Дюма всем мушкетерам уже за сорок. Д`Артаньян
прозябает в лейтенантах, Арамиса интересуют больше женщины, нежели религия, Портос богат,
но несчастлив, Атос потихоньку спивается.
И вот однажды всех четверых вновь вместе собирает приказ королевы. Теперь их главная
соперница — дочь миледи, жаждущая отомстить за смерть матери.
Доп. информация: Дорожка с В. Горчаковым синхронизирована и наложена ale_x2008 при помощи Sony Vegas и VirtualDubMod.
За оцифрованную с VHS дорожку благодарим - Glowamy

Релиз
Сэмпл: https://yadi.sk/i/QG5F4DjySUVr4w
Качество видео: HDTVRip
Формат видео: AVI
Видео: XviD build 50, 720x400 (1.80:1), 23.976 fps, 1915 kbps avg, 0.28 bit/pixel
Аудио: AC3 Dolby Digital, 48000Hz 2/0 (L,R) ch (mono), 192 kbps avg

MediaInfo

Возвращение мушкетеров - The Return of the Musketeers (by ale_x2008).avi
Format : AVI
Format/Info : Audio Video Interleave
File size : 1.51 GiB
Duration : 1 h 42 min
Overall bit rate : 2 117 kb/s
Movie name : Возвращение мушкетёров
Director : by ale_X2008
Writing application : VirtualDubMod 1.5.10.2 (build 2540/release)
Copyright : Edich2
Comment : RuTracker.org
Video
ID : 0
Format : MPEG-4 Visual
Format profile : Advanced Simple@L5
Format settings : BVOP1 / Custom Matrix
Format settings, BVOP : 1
Format settings, QPel : No
Format settings, GMC : No warppoints
Format settings, Matrix : Custom
Codec ID : XVID
Codec ID/Hint : XviD
Duration : 1 h 42 min
Bit rate : 1 916 kb/s
Width : 720 pixels
Height : 400 pixels
Display aspect ratio : 16:9
Frame rate : 23.976 (24000/1001) FPS
Color space : YUV
Chroma subsampling : 4:2:0
Bit depth : 8 bits
Scan type : Progressive
Compression mode : Lossy
Bits/(Pixel*Frame) : 0.277
Stream size : 1.37 GiB (90%)
Writing library : XviD 1.2.1 (UTC 2008-12-04)
Audio
ID : 1
Format : AC-3
Format/Info : Audio Coding 3
Codec ID : 2000
Duration : 1 h 42 min
Bit rate mode : Constant
Bit rate : 192 kb/s
Channel(s) : 2 channels
Channel positions : Front: L R
Sampling rate : 48.0 kHz
Frame rate : 31.250 FPS (1536 SPF)
Bit depth : 16 bits
Compression mode : Lossy
Stream size : 140 MiB (9%)
Alignment : Split accross interleaves
Interleave, duration : 42 ms (1.00 video frame)
Interleave, preload duratio : 500 ms
Service kind : Complete Main

Скриншоты


[cybertorrent.net].t2357.torrent 
Торрент: Зарегистрирован [ 2019-04-29 16:03 ] · 763860B75CB56BC01D83BAC3106F808DAB343991

Скачать .torrent

Скачать

16 KB

Статус: проверено
Скачан: 0 раз
Размер: 1,51 GB
terms.php
Профиль [ЛС]
Показать сообщения:    

Текущее время: 23-Ноя 02:33

Часовой пояс: UTC ± 0



Вы не можете начинать темы
Вы не можете отвечать на сообщения
Вы не можете редактировать свои сообщения
Вы не можете удалять свои сообщения
Вы не можете голосовать в опросах
Вы не можете прикреплять файлы к сообщениям
Вы можете скачивать файлы