Статистика раздачи
Размер:  1,81 GB   |    Зарегистрирован:  7 месяцев 7 дней   |    Скачан:  0 раз
Сидов:  28  [  0 KB/s  ]   Личеров:  3  [  0 KB/s  ]  
 
     
 
 

солнышко ®

Пол:
Не указан
Стаж:
8 месяцев 24 дня
Сообщений:
565

Веном / Venom
Страна: США
Жанр: боевик, фантастика, триллер
Год выпуска: 2018
Продолжительность: 01:52:08

Перевод: Авторский (одноголосый закадровый) Юрий Живов
Перевод 2: Авторский (одноголосый закадровый) Юрий Немахов (отдельно)
Субтитры: нет
Режиссер: Рубен Фляйшер / Ruben Fleischer
В ролях: Том Харди, Мишель Уильямс, Марчелла Браджио, Вуди Харрельсон, Дженни Слейт, Риз Ахмед, Мак Брандт, Рон Джонс, Мишель Ли
Описание: Журналист Эдди Брок берет интервью у бизнесмена и ученого Карлтона Дрейка. Эта беседа оборачивается для Брока потерей работы. Однако вскоре Эдди удается узнать, что у Дрейка в лаборатории есть некий инопланетный паразит, которого он использует в экспериментах над людьми. Чтобы вернуть себе работу, Эдди решает вывести Дрейка на чистую воду. Он пробирается в лабораторию, пытаясь спасти жертву эксперимента, но в итоге сам сливается с инопланетным симбиотом. Научившись пользоваться суперсилами, полученными от пришельца, Эдди становится борцом с преступностью по имени Веном.

Сэмпл: http://multi-up.com/1230685
Качество видео: BDRip (Исходник Venom.2018.Lic..BDREMUX.1080p.seleZen.mkv)
Формат видео: AVI
Видео: XviD 73, 720x304, (2,35:1), 23,976 fps, 1412 Кбит/с, 8 бит, 0.27 bit/pixel
Аудио: Русский (АС3, 6 ch (Front: L C R, Side: L R, LFE), 48,0 KHz, 448 Kbps Юрий Живов
Аудио 2: Русский (АС3, 6 ch (Front: L C R, Side: L R, LFE), 48,0 KHz, 448 Kbps Юрий Немахов (отдельно)

MediaInfo

Общее
Полное имя : D:\Фильмы на трекер\Веном_(боевик, фантастика, триллер 2018 год)_Leonard_Lew\Веном_(боевик, фантастика, триллер 2018 год)_Leonard_Lew.avi
Формат : AVI
Формат/Информация : Audio Video Interleave
Размер файла : 1,46 Гбайт
Продолжительность : 1 ч. 52 м.
Общий поток : 1869 Кбит/сек
Программа кодирования : VirtualDubMod 1.5.10.3 | www.virtualdub-fr.org || (build 2550/release)
Библиотека кодирования : VirtualDubMod build 2550/release
Видео
Идентификатор : 0
Формат : MPEG-4 Visual
Профиль формата : Advanced Simple@L5
Параметр BVOP формата : 2
Параметр QPel формата : Нет
Параметр GMC формата : Без точки перехода
Параметр матрицы формата : Выборочная
Идентификатор кодека : XVID
Идентификатор кодека/Подсказка : XviD
Продолжительность : 1 ч. 52 м.
Битрейт : 1412 Кбит/сек
Ширина : 720 пикселей
Высота : 304 пикселя
Соотношение сторон : 2,35:1
Частота кадров : 23,976 (23976/1000) кадра/сек
Цветовое пространство : YUV
Субдискретизация насыщенности : 4:2:0
Битовая глубина : 8 бит
Тип развёртки : Прогрессивная
Метод сжатия : С потерями
Бит/(Пиксели*Кадры) : 0.269
Размер потока : 1,11 Гбайт (76%)
Библиотека кодирования : XviD 73
Аудио
Идентификатор : 1
Формат : AC-3
Формат/Информация : Audio Coding 3
Расширение режима : CM (complete main)
Параметр Endianness формата : Big
Идентификатор кодека : 2000
Продолжительность : 1 ч. 52 м.
Вид битрейта : Постоянный
Битрейт : 448 Кбит/сек
Каналы : 6 каналов
Расположение каналов : Front: L C R, Side: L R, LFE
Частота : 48,0 КГц
Частота кадров : 31,250 кадров/сек (1536 spf)
Метод сжатия : С потерями
Размер потока : 359 Мбайт (24%)
Выравнивание : Разделение по промежуткам
Продолжительность промежутка : 42 мс. (1,00 видеокадр)
Время предзагрузки промежутка : 500 мс.

Скриншот c названием фильма

Скриншоты

[cybertorrent.net].t2352.torrent 
Торрент: Зарегистрирован [ 2019-04-28 15:36 ] · 8E8D0961E599F2AEE26FD0FE4C592709BFEF5B67

Скачать .torrent

Скачать

19 KB

Статус: проверено
Скачан: 0 раз
Размер: 1,81 GB
terms.php
Профиль [ЛС]
Показать сообщения:    

Текущее время: 05-Дек 15:54

Часовой пояс: UTC ± 0



Вы не можете начинать темы
Вы не можете отвечать на сообщения
Вы не можете редактировать свои сообщения
Вы не можете удалять свои сообщения
Вы не можете голосовать в опросах
Вы не можете прикреплять файлы к сообщениям
Вы можете скачивать файлы