Статистика раздачи
Размер:  1,46 GB   |    Зарегистрирован:  8 месяцев 2 дня   |    Скачан:  0 раз

Полного источника не было: Никогда

 
     
 
 

Гость ®

Пол:
Не указан

Ленинградская симфония
Студия: Мосфильм
Жанр: драма, военный
Год выпуска: 1957
Продолжительность: 01:24:49
Режиссер: Захар Аграненко
В ролях: Николай Крючков, Ольга Малько, Марк Перцовский, Валентин Печников, Галина Шостко, Игорь Безяев, Владимир Борискин, Владимир Соловьёв (I), Юрий Киреев, Николай Новлянский, Жанна Сухопольская, Юрий Кротенко, Алла Демидова, Микаэла Дроздовская, Фёдор Никитин, Юлиан Панич, Евгений Тетерин, Зоя Фёдорова, Сергей Филиппов, Михаил Туманишвили, Иван Коваль-Самборский, Сергей Курилов, Максим Штраух
Описание: Лето 1942. В основе фильма - история исполнения в осажденном Ленинграде "Седьмой ленинградской симфонии" Дмитрия Шостаковича. Лето 1942 года. В Дом радио Ленинграда прибывает партитура Седьмой симфонии Д.Шостаковича. Исполнить ее невозможно, так как в оркестре осталось мало музыкантов. Командование присылает музыкантов со всех участков фронта. В день, когда Гитлер поклялся захватить Ленинград, симфония впервые прозвучала по радио.
Дополнительная информация:
Автор релиза -
Источник для рипа - HDTV 1080i TS - моя запись с канала "Первый HD"
Очень качественная мастер-копия от Первого канала




Тип релиза: HDTVRip
Контейнер: AVI
Видео: XviD, 720x528 (4:3), 2085 kbps, 25 fps, 0.219 bit/pixel
Аудио: Русский АС3, 48000 Гц, 2ch, 192 kbps

MediaInfo

Общее
Полное имя : D:\Ленинградская.симфония.1957.HDTVRip-ylnian.avi
Формат : AVI
Формат/Информация : Audio Video Interleave
Размер файла : 1,46 Гбайт
Продолжительность : 1 ч. 31 м.
Общий поток : 2286 Кбит/сек
Программа кодирования : VirtualDubMod 1.5.10.3 | www.virtualdub-fr.org || (build 2550/release)
Библиотека кодирования : VirtualDubMod build 2550/release
Видео
Идентификатор : 0
Формат : MPEG-4 Visual
Профиль формата : Advanced Simple@L5
Настройки формата : BVOP1 / Custom Matrix
Параметр BVOP формата : 1
Параметр QPel формата : Нет
Параметр GMC формата : Без точки перехода
Параметр матрицы формата : Выборочная
Идентификатор кодека : XVID
Идентификатор кодека/Подсказка : XviD
Продолжительность : 1 ч. 31 м.
Битрейт : 2085 Кбит/сек
Ширина : 720 пикселей
Высота : 528 пикселей
Соотношение сторон : 4:3
Частота кадров : 25,000 кадров/сек
Цветовое пространство : YUV
Субдискретизация насыщенности : 4:2:0
Битовая глубина : 8 бит
Тип развёртки : Прогрессивная
Метод сжатия : С потерями
Бит/(Пиксели*Кадры) : 0.219
Размер потока : 1,33 Гбайт (91%)
Библиотека кодирования : XviD 67
Аудио
Идентификатор : 1
Формат : AC-3
Формат/Информация : Audio Coding 3
Коммерческое название : Dolby Digital
Идентификатор кодека : 2000
Продолжительность : 1 ч. 31 м.
Вид битрейта : Постоянный
Битрейт : 192 Кбит/сек
Каналы : 2 канала
Channel layout : L R
Частота : 48,0 КГц
Частота кадров : 31,250 кадров/сек (1536 SPF)
Битовая глубина : 16 бит
Метод сжатия : С потерями
Размер потока : 126 Мбайт (8%)
Выравнивание : Разделение по промежуткам
Продолжительность промежутка : 40 мс. (1,00 видеокадр)
Время предзагрузки промежутка : 500 мс.
ServiceKind/String : Complete Main
[cybertorrent.net].t235.torrent 
Торрент: Зарегистрирован [ 2019-03-18 10:04 ] · A9FAC099700BBBE0B46B17EC066C27F305306278

Скачать .torrent

Скачать

15 KB

Статус: проверено
Скачан: 0 раз
Размер: 1,46 GB
terms.php
Показать сообщения:    

Текущее время: 21-Ноя 01:09

Часовой пояс: UTC ± 0



Вы не можете начинать темы
Вы не можете отвечать на сообщения
Вы не можете редактировать свои сообщения
Вы не можете удалять свои сообщения
Вы не можете голосовать в опросах
Вы не можете прикреплять файлы к сообщениям
Вы можете скачивать файлы