Статистика раздачи
Размер:  2,18 GB   |    Зарегистрирован:  1 год 2 месяца   |    Скачан:  0 раз
DL-List: Нет

Полного источника не было: Никогда

 
     
 
 

солнышко ®

Пол:
Не указан
Стаж:
1 год 4 месяца
Сообщений:
723

Книга Генри / The Book of Henry- Страна: США
Жанр: драма
Год выпуска: 2017
Продолжительность: 01:45:08
Перевод: Профессиональный (дублированный)
Субтитры: русские, английские
Оригинальная аудиодорожка: английский
Режиссер: Колин Треворроу / Colin Trevorrow
В ролях: Наоми Уоттс, Джейден Либерер, Джейкоб Тремблэ, Сара Силверман, Дин Норрис, Ли Пейс, Мэдди Зиглер, Тоня Пинкинс, Бобби Мойнахан, Джеральдин Хьюз
Описание: 11-летий Генри – гениальный мальчик, живущий в обычном американском пригороде. Он не по годам рассудителен, всегда заступается за младшего брата, ведет финансы своей матери, однако даже с его умением просчитывать любую ситуацию на несколько ходов вперед мальчишке удается далеко не все – например, он ничем не может помочь соседской девочке-сверстнице, с которой жестоко обращается ее отчим-полицейский. Звонки в службу опеки, жалобы в полицию и разговоры со школьными учителями ни к чему не приводят, и тогда Генри решается на отчаянные шаги, но внезапно открывшаяся болезнь не позволяет мальчику самому воплотить задумку в жизнь. Генри передает матери свои записи, где подробно описана операция, которая освободит соседку.
Сэмпл: http://sendfile.su/1491356

Качество видео: BDRip-AVC (Книга Генри 2017 BDRemux)
Формат видео: MKV
Видео: x264, 1072x536 (2:1) 23.976 fps, ~2324 kbps, 0,169 bit/pixel
Аудио 1: 48 kHz, AC3 Dolby Digital, 2/0 (L,R), ~192 kbps avg | SDI Media
Аудио 2: 48 kHz, AC3 Dolby Digital, 3/2 (L,C,R,l,r) + LFE ch, ~448 kbps | Английский
Формат субтитров: softsub (SRT)

MediaInfo

General
Unique ID : 61562862557185932508104132056184392659 (0x2E509377C1FAE950BDEA1E31F48A0BD3)
Format : Matroska
Format version : Version 4 / Version 2
File size : 2.18 GiB
Duration : 1h 45mn
Overall bit rate : 2 966 Kbps
Encoded date : UTC 2019-04-28 06:40:50
Writing application : mkvmerge v33.0.0 ('A Little Bit of Madness') 64-bit
Writing library : libebml v1.3.7 + libmatroska v1.5.0
Video #1
ID : 1
Format : AVC
Format/Info : Advanced Video Codec
Format profile : High@L4.1
Format settings, CABAC : Yes
Format settings, ReFrames : 11 frames
Codec ID : V_MPEG4/ISO/AVC
Duration : 1h 45mn
Bit rate : 2 324 Kbps
Width : 1 072 pixels
Height : 536 pixels
Display aspect ratio : 2.000
Frame rate mode : Constant
Frame rate : 23.976 (24000/1001) fps
Color space : YUV
Chroma subsampling : 4:2:0
Bit depth : 8 bits
Scan type : Progressive
Bits/(Pixel*Frame) : 0.169
Stream size : 1.71 GiB (78%)
Writing library : x264 core 157 r2935 545de2f
Encoding settings : cabac=1 / ref=11 / deblock=1:-3:-2 / analyse=0x3:0x133 / me=umh / subme=10 / psy=1 / psy_rd=1.00:0.00 / mixed_ref=1 / me_range=32 / chroma_me=1 / trellis=2 / 8x8dct=1 / cqm=0 / deadzone=21,11 / fast_pskip=0 / chroma_qp_offset=-2 / threads=6 / lookahead_threads=1 / sliced_threads=0 / nr=0 / decimate=1 / interlaced=0 / bluray_compat=0 / constrained_intra=0 / bframes=12 / b_pyramid=2 / b_adapt=2 / b_bias=0 / direct=1 / weightb=1 / open_gop=0 / weightp=2 / keyint=250 / keyint_min=23 / scenecut=40 / intra_refresh=0 / rc=crf / mbtree=0 / crf=19.5 / qcomp=0.65 / qpmin=0 / qpmax=69 / qpstep=4 / ip_ratio=1.40 / pb_ratio=1.30 / aq=3:0.90
Language : English
Default : Yes
Forced : No
Audio #2
ID : 2
Format : AC-3
Format/Info : Audio Coding 3
Mode extension : CM (complete main)
Format settings, Endianness : Big
Codec ID : A_AC3
Duration : 1h 45mn
Bit rate mode : Constant
Bit rate : 192 Kbps
Channel(s) : 2 channels
Channel positions : Front: L R
Sampling rate : 48.0 KHz
Frame rate : 31.250 fps (1536 spf)
Compression mode : Lossy
Stream size : 144 MiB (6%)
Language : Russian
Default : Yes
Forced : No
Audio #3
ID : 3
Format : AC-3
Format/Info : Audio Coding 3
Mode extension : CM (complete main)
Format settings, Endianness : Big
Codec ID : A_AC3
Duration : 1h 45mn
Bit rate mode : Constant
Bit rate : 448 Kbps
Channel(s) : 6 channels
Channel positions : Front: L C R, Side: L R, LFE
Sampling rate : 48.0 KHz
Frame rate : 31.250 fps (1536 spf)
Compression mode : Lossy
Stream size : 337 MiB (15%)
Language : English
Default : No
Forced : No
Text #4
ID : 4
Format : UTF-8
Codec ID : S_TEXT/UTF8
Codec ID/Info : UTF-8 Plain Text
Duration : 1h 38mn
Bit rate : 80 bps
Count of elements : 1217
Stream size : 58.2 KiB (0%)
Language : Russian
Default : No
Forced : No
Text #5
ID : 5
Format : UTF-8
Codec ID : S_TEXT/UTF8
Codec ID/Info : UTF-8 Plain Text
Duration : 1h 38mn
Bit rate : 45 bps
Count of elements : 1236
Stream size : 33.0 KiB (0%)
Language : English
Default : No
Forced : No

лог

raw [info]: 1072x536p 1:1 @ 24000/1001 fps (cfr)
x264 [info]: using SAR=1/1
x264 [info]: using cpu capabilities: MMX2 SSE2Fast SSSE3 SSE4.2 AVX XOP FMA3 BMI1
x264 [info]: profile High, level 4.1, 4:2:0, 8-bit
x264 [info]: frame I:1378 Avg QP:16.89 size: 78443
x264 [info]: frame P:28135 Avg QP:18.58 size: 25821
x264 [info]: frame B:121749 Avg QP:21.41 size: 8199
x264 [info]: consecutive B-frames: 1.7% 1.3% 4.5% 10.9% 14.2% 44.6% 8.4% 2.7% 2.9% 2.4% 3.6% 1.5% 1.4%
x264 [info]: mb I I16..4: 7.0% 76.2% 16.7%
x264 [info]: mb P I16..4: 0.7% 9.1% 1.1% P16..4: 40.4% 22.5% 18.1% 0.5% 0.1% skip: 7.5%
x264 [info]: mb B I16..4: 0.0% 0.7% 0.1% B16..8: 40.9% 9.7% 2.9% direct: 4.1% skip:41.6% L0:46.3% L1:45.7% BI: 8.0%
x264 [info]: 8x8 transform intra:81.9% inter:62.5%
x264 [info]: coded y,uvDC,uvAC intra: 88.4% 83.5% 66.7% inter: 20.6% 14.3% 2.7%
x264 [info]: i16 v,h,dc,p: 45% 14% 12% 28%
x264 [info]: i8 v,h,dc,ddl,ddr,vr,hd,vl,hu: 12% 7% 9% 10% 13% 14% 12% 11% 11%
x264 [info]: i4 v,h,dc,ddl,ddr,vr,hd,vl,hu: 12% 6% 4% 11% 16% 15% 13% 11% 12%
x264 [info]: i8c dc,h,v,p: 46% 20% 17% 17%
x264 [info]: Weighted P-Frames: Y:9.2% UV:6.1%
x264 [info]: ref P L0: 44.7% 9.6% 18.2% 7.0% 5.8% 4.1% 3.7% 1.9% 1.8% 1.5% 1.5% 0.2% 0.0%
x264 [info]: ref B L0: 66.4% 13.3% 7.5% 3.9% 2.8% 2.3% 1.8% 1.1% 0.6% 0.3%
x264 [info]: ref B L1: 91.7% 8.3%
x264 [info]: kb/s:2324.01
x264 [total]: encoded 151262 frames, 6.26 fps, 2324.01 kb/s

Скриншоты


[cybertorrent.net].t2348.torrent 
Торрент: Зарегистрирован [ 2019-04-28 15:36 ] · CE1021CA7AF45C38A8FD50E5262B8B8A95BB7E3A

Скачать .torrent

Скачать

11 KB

Статус: проверено
Скачан: 0 раз
Размер: 2,18 GB  ·  Тип торрента
terms.php
Профиль [ЛС]
Показать сообщения:    

Текущее время: 12-Июл 13:19

Часовой пояс: UTC ± 0



Вы не можете начинать темы
Вы не можете отвечать на сообщения
Вы не можете редактировать свои сообщения
Вы не можете удалять свои сообщения
Вы не можете голосовать в опросах
Вы не можете прикреплять файлы к сообщениям
Вы можете скачивать файлы