Статистика раздачи
Размер:  1,46 GB   |    Зарегистрирован:  7 месяцев 12 дней   |    Скачан:  0 раз
Сидов:  40  [  0 KB/s  ]   Личеров:  4  [  0 KB/s  ]  
 
     
 
 

Гость ®

Пол:
Не указан

Адская ночь / Hell of a Night
Страна: США
Жанр: ужасы, триллер
Год выпуска: 2019
Продолжительность: 01:24:18-Перевод: Любительский (многоголосый закадровый) | HDRezka Studio
Субтитры: нет
Оригинальная аудиодорожка: нет-Режиссер: Брайан Чайлдс / Brian Childs-В ролях: Рэйчел Хеврин, Грэйс Пауэлл, Элла Тейлор, Кристин МакКензи, Джордайн Виссер, Дебора Кей Хукер, Кайли Кинг, Тори Карю, Алисса Копли, Роберт Хукер-Описание: В центре истории находится Блейк — студентка колледжа, опечаленная трагической смертью отца. Пытаясь справиться с потерей близкого человека, она арендует маленький дом, находящийся вдали от города, чтобы провести несколько дней в одиночестве. Но случайно найденная доска Уиджа, используемая для спиритических сеансов, кардинальным образом меняет все планы девушки. И теперь ей предстоит бороться за свою жизнь, сражаясь не только с призванными призраками, но и Хлоей — близкой подругой, которая решила предать Блейк.-Качество видео: WEB-DLRip
Формат видео: AVI
Видео: 704x288 (2.44:1), 24.000 fps, XviD build 73 ~2272 kbps avg, 0.47 bit/pixel
Аудио: 48 kHz, AC3 Dolby Digital, 2/0 (L,R) ch, ~192 kbps-[box]Сэмпл[/box]-

MediaInfo

Код:Формат : AVI
Формат/Информация : Audio Video Interleave
Размер файла : 1,46 Гбайт
Продолжительность : 1 ч. 24 м.
Общий поток : 2473 Кбит/сек
Программа кодирования : VirtualDubMod 1.5.10.3 | www.virtualdub-fr.org || (build 2550/release)
Библиотека кодирования : VirtualDubMod build 2550/release
Видео
Идентификатор : 0
Формат : MPEG-4 Visual
Профиль формата : Advanced Simple@L5
Настройки формата : BVOP1 / Custom Matrix
Параметр BVOP формата : 1
Параметр QPel формата : Нет
Параметр GMC формата : Без точки перехода
Параметр матрицы формата : Выборочная
Идентификатор кодека : XVID
Идентификатор кодека/Подсказка : XviD
Продолжительность : 1 ч. 24 м.
Битрейт : 2272 Кбит/сек
Ширина : 704 пикселя
Высота : 288 пикселей
Соотношение сторон : 2,40:1
Частота кадров : 24,000 кадра/сек
Цветовое пространство : YUV
Субдискретизация насыщенности : 4:2:0
Битовая глубина : 8 бит
Тип развёртки : Прогрессивная
Метод сжатия : С потерями
Бит/(Пиксели*Кадры) : 0.467
Размер потока : 1,34 Гбайт (92%)
Библиотека кодирования : XviD 73
Аудио
Идентификатор : 1
Формат : AC-3
Формат/Информация : Audio Coding 3
Коммерческое название : Dolby Digital
Идентификатор кодека : 2000
Продолжительность : 1 ч. 24 м.
Вид битрейта : Постоянный
Битрейт : 192 Кбит/сек
Каналы : 2 канала
ChannelLayout : L R
Частота : 48,0 КГц
Частота кадров : 31,250 кадров/сек (1536 SPF)
Битовая глубина : 16 бит
Метод сжатия : С потерями
Размер потока : 116 Мбайт (8%)
Выравнивание : Разделение по промежуткам
Продолжительность промежутка : 42 мс. (1,00 видеокадр)
Время предзагрузки промежутка : 500 мс.
ServiceKind/String : Complete Main

Скриншоты


[cybertorrent.net].t2346.torrent 
Торрент: Зарегистрирован [ 2019-04-28 15:36 ] · 2272281426DD2D9DEC73D6D2DDD39F10CEB156C7

Скачать .torrent

Скачать

15 KB

Статус: проверено
Скачан: 0 раз
Размер: 1,46 GB
terms.php
Показать сообщения:    

Текущее время: 11-Дек 07:05

Часовой пояс: UTC ± 0



Вы не можете начинать темы
Вы не можете отвечать на сообщения
Вы не можете редактировать свои сообщения
Вы не можете удалять свои сообщения
Вы не можете голосовать в опросах
Вы не можете прикреплять файлы к сообщениям
Вы можете скачивать файлы