Статистика раздачи
Размер:  99 MB   |    Зарегистрирован:  6 месяцев 22 дня   |    Скачан:  0 раз

Полного источника не было: Никогда

 
     
 
 

Гость ®

Пол:
Не указан

Первый гром / The First thunder
Страна: Россия
Жанр: музыкальный мультфильм
Продолжительность: 00:04:59
Год выпуска: 2017
Русские субтитры: нет
Режиссёр: Анастасия Мелихова
Описание: Фантазия на музыку А.К. Лядова о пробуждении от зимней спячки, о выходе из своего "мирка" в полный красоты мир.
Доп. информация: Приз за лучший дебютный фильм – Фестиваль анимации в Суздале (2018)
Качество: WEBRip-AVC
Формат: MP4
Видео: 2628 kbps, 1280х720 (16:9), 25.000 fps, AVC (High@L3.1)
Аудио: 137 kbps, 48.0 kHz, 2 channels, AAC (LC)
Субтитры: отсутствуют

Подробные технические данные

General
Complete name : Первый гром (2017).mp4
Format : MPEG-4
Format profile : Base Media / Version 2
Codec ID : mp42
File size : 99.0 MiB
Duration : 4mn 59s
Overall bit rate mode : Variable
Overall bit rate : 2 769 Kbps
Encoded date : UTC 2019-02-27 12:07:25
Tagged date : UTC 2019-02-27 12:07:25
Video
ID : 1
Format : AVC
Format/Info : Advanced Video Codec
Format profile : High@L3.2
Format settings, CABAC : Yes
Format settings, ReFrames : 5 frames
Codec ID : avc1
Codec ID/Info : Advanced Video Coding
Duration : 4mn 59s
Bit rate : 2 628 Kbps
Width : 1 280 pixels
Height : 720 pixels
Display aspect ratio : 16:9
Frame rate mode : Constant
Frame rate : 25.000 fps
Color space : YUV
Chroma subsampling : 4:2:0
Bit depth : 8 bits
Scan type : Progressive
Bits/(Pixel*Frame) : 0.114
Stream size : 94.0 MiB (95%)
Writing library : x264 core 157 r10 545de2f
Encoding settings : cabac=1 / ref=5 / deblock=1:0:0 / analyse=0x3:0x113 / me=hex / subme=8 / psy=1 / psy_rd=1.00:0.00 / mixed_ref=1 / me_range=16 / chroma_me=1 / trellis=2 / 8x8dct=1 / cqm=0 / deadzone=21,11 / fast_pskip=1 / chroma_qp_offset=-2 / threads=22 / lookahead_threads=3 / sliced_threads=0 / nr=0 / decimate=1 / interlaced=0 / bluray_compat=0 / stitchable=1 / constrained_intra=0 / bframes=3 / b_pyramid=2 / b_adapt=2 / b_bias=0 / direct=3 / weightb=1 / open_gop=0 / weightp=2 / keyint=infinite / keyint_min=25 / scenecut=40 / intra_refresh=0 / rc_lookahead=50 / rc=crf / mbtree=1 / crf=20.0 / qcomp=0.60 / qpmin=5 / qpmax=69 / qpstep=4 / vbv_maxrate=2750 / vbv_bufsize=7500 / crf_max=0.0 / nal_hrd=none / filler=0 / ip_ratio=1.40 / aq=1:1.00
Encoded date : UTC 2019-02-27 12:07:25
Tagged date : UTC 2019-02-27 12:07:25
Color primaries : BT.709
Transfer characteristics : BT.709
Matrix coefficients : BT.709
Audio
ID : 2
Format : AAC
Format/Info : Advanced Audio Codec
Format profile : LC
Codec ID : 40
Duration : 4mn 59s
Bit rate mode : Variable
Bit rate : 137 Kbps
Channel(s) : 2 channels
Channel positions : Front: L R
Sampling rate : 48.0 KHz
Compression mode : Lossy
Stream size : 4.90 MiB (5%)
Encoded date : UTC 2019-02-27 12:07:25
Tagged date : UTC 2019-02-27 12:07:25

Скриншоты

[cybertorrent.net].t2341.torrent 
Торрент: Зарегистрирован [ 2019-04-28 15:36 ] · AF060EDDC0453B8B51F197EDD784319B9B246196

Скачать .torrent

Скачать

16 KB

Статус: проверено
Скачан: 0 раз
Размер: 99 MB
terms.php
Показать сообщения:    

Текущее время: 21-Ноя 01:11

Часовой пояс: UTC ± 0



Вы не можете начинать темы
Вы не можете отвечать на сообщения
Вы не можете редактировать свои сообщения
Вы не можете удалять свои сообщения
Вы не можете голосовать в опросах
Вы не можете прикреплять файлы к сообщениям
Вы можете скачивать файлы