Статистика раздачи
Размер:  157 MB   |    Зарегистрирован:  7 месяцев 10 дней   |    Скачан:  0 раз

Полного источника не было: Никогда

 
     
 
 

Гость ®

Пол:
Не указан

Шаги / Крокi
Страна: СССР (Белорусская республика)
Жанр: мультфильм для взрослых
Продолжительность: 00:10:06
Год выпуска: 1988
Перевод: не требуется
Режиссёры: В.Бакунович, В.Алькович, М.Тумеля
Описание: Философско-сатирический альманах из трёх сюжетов:
Беглец / Уцякач (реж. В.Бакунович)
Всегда / Заўжды (реж. В.Алькович)
Черта / Рыса (реж. М.Тумеля)
Качество: WEBRip
Формат: AVI
Видео: 1975 kbps, 640х480 (4:3), 25.000 fps, MPEG-4 Visual (XviD)
Аудио: 192 kbps, 44.1 kHz, 2 channels, MPEG Audio (MP3)
Субтитры: отсутствуют

Подробные технические данные

General
Complete name : Шаги (1988).avi
Format : AVI
Format/Info : Audio Video Interleave
File size : 157 MiB
Duration : 10mn 6s
Overall bit rate : 2 177 Kbps
Writing application : MEncoder SVN-r30881(20100311-gcc4.3.3)
Writing library : VirtualDub build 35491/release
Video
ID : 0
Format : MPEG-4 Visual
Format profile : Advanced Simple@L5
Format settings, BVOP : 2
Format settings, QPel : No
Format settings, GMC : No warppoints
Format settings, Matrix : Default (H.263)
Codec ID : XVID
Codec ID/Hint : XviD
Duration : 10mn 6s
Bit rate : 1 975 Kbps
Width : 640 pixels
Height : 480 pixels
Display aspect ratio : 4:3
Frame rate : 25.000 fps
Color space : YUV
Chroma subsampling : 4:2:0
Bit depth : 8 bits
Scan type : Progressive
Compression mode : Lossy
Bits/(Pixel*Frame) : 0.257
Stream size : 143 MiB (91%)
Writing library : XviD 73
Audio
ID : 1
Format : MPEG Audio
Format version : Version 1
Format profile : Layer 3
Mode : Joint stereo
Mode extension : MS Stereo
Codec ID : 55
Codec ID/Hint : MP3
Duration : 10mn 6s
Bit rate mode : Constant
Bit rate : 192 Kbps
Channel(s) : 2 channels
Sampling rate : 44.1 KHz
Compression mode : Lossy
Stream size : 13.9 MiB (9%)
Alignment : Split accross interleaves
Interleave, duration : 40 ms (1.00 video frame)
Interleave, preload duration : 500 ms

Скриншоты

[cybertorrent.net].t2336.torrent 
Торрент: Зарегистрирован [ 2019-04-28 15:36 ] · 835EC67D68428F4DF554CB3B2D396DCC85ACA39D

Скачать .torrent

Скачать

13 KB

Статус: проверено
Скачан: 0 раз
Размер: 157 MB
terms.php
Показать сообщения:    

Текущее время: 09-Дек 06:10

Часовой пояс: UTC ± 0



Вы не можете начинать темы
Вы не можете отвечать на сообщения
Вы не можете редактировать свои сообщения
Вы не можете удалять свои сообщения
Вы не можете голосовать в опросах
Вы не можете прикреплять файлы к сообщениям
Вы можете скачивать файлы