Статистика раздачи
Размер:  2 GB   |    Зарегистрирован:  7 месяцев 17 дней   |    Скачан:  0 раз

Полного источника не было: Никогда

 
     
 
 

Гость ®

Пол:
Не указан

Призраки прошлого
Год выпуска: 2019
Производство: 1-2-3 Продакшн, по заказу телеканала ТВ3
Жанр: детектив, драма, триллер
Продолжительность: ~00:43:00 серия
Субтитры: нет
Режиссёр: Влад Николаев
В ролях: Максим Сапрыкин, Егор Бероев, Ксения Теплова, Кристина Исайкина, Анатолий Гущин, Иван Кокорин

Описание: Врач скорой помощи Алексей Иванов по делам приезжает на малую родину, в тихий городок, с которым у него связаны самые мрачные воспоминания: много лет назад на выпускном вечере убили его любимую девушку. Алексей заводит роман с новой соседкой - поговаривают, что она ведьма - и становится главным подозреваемым в совершении страшного преступления...

Реклама: Нет.
Кино-театр
Все раздачи сериала
Sample
Качество: WEBRip 720p
Формат: MKV
Видео кодек: H.264
Аудио кодек: AC3
Видео: MPEG4 AVC Video, H264, 16:9, 1280x720, 25 fps, ~2930 kbps, 0.127 bit/pixel
Аудио: AC3 Dolby Digital, 44.1 kHz, 2/0 (L,R) ch, 192 kbps

MI

General
Unique ID : 241650063797147173100608705016385465730 (0xB5CC1C012E026A588D4BB70D12D76D82)
Complete name : D:\Призраки прошлого 2019 WEBRip 720p\01.Призраки прошлого 2019 WEBRip 720p.mkv
Format : Matroska
Format version : Version 4 / Version 2
File size : 967 MiB
Duration : 42 min 28 s
Overall bit rate : 3 184 kb/s
Encoded date : UTC 2019-04-27 06:47:38
Writing application : mkvmerge v6.1.0 ('Old Devil') built on Mar 2 2013 14:32:37
Writing library : libebml v1.3.0 + libmatroska v1.4.0
Video
ID : 1
Format : AVC
Format/Info : Advanced Video Codec
Format profile : High@L3.1
Format settings : CABAC / 1 Ref Frames
Format settings, CABAC : Yes
Format settings, ReFrames : 1 frame
Format settings, GOP : M=1, N=12
Codec ID : V_MPEG4/ISO/AVC
Duration : 42 min 28 s
Bit rate : 2 929 kb/s
Width : 1 280 pixels
Height : 720 pixels
Display aspect ratio : 16:9
Frame rate mode : Constant
Frame rate : 25.000 FPS
Standard : Component
Color space : YUV
Chroma subsampling : 4:2:0
Bit depth : 8 bits
Scan type : Progressive
Bits/(Pixel*Frame) : 0.127
Stream size : 890 MiB (92%)
Default : Yes
Forced : No
Color range : Limited
Audio
ID : 2
Format : AC-3
Format/Info : Audio Coding 3
Codec ID : A_AC3
Duration : 42 min 28 s
Bit rate mode : Constant
Bit rate : 192 kb/s
Channel(s) : 2 channels
Channel positions : Front: L R
Sampling rate : 44.1 kHz
Frame rate : 28.711 FPS (1536 SPF)
Bit depth : 16 bits
Compression mode : Lossy
Stream size : 58.3 MiB (6%)
Service kind : Complete Main
Default : Yes
Forced : No

Скриншоты


[cybertorrent.net].t2331.torrent 
Торрент: Зарегистрирован [ 2019-04-27 17:09 ] · 0A82A27A87DA4281BDF60C6E88654EDCE17641E6

Скачать .torrent

Скачать

21 KB

Статус: проверено
Скачан: 0 раз
Размер: 2 GB
terms.php
Показать сообщения:    

Текущее время: 15-Дек 11:44

Часовой пояс: UTC ± 0



Вы не можете начинать темы
Вы не можете отвечать на сообщения
Вы не можете редактировать свои сообщения
Вы не можете удалять свои сообщения
Вы не можете голосовать в опросах
Вы не можете прикреплять файлы к сообщениям
Вы можете скачивать файлы