Статистика раздачи
Размер:  743 MB   |    Зарегистрирован:  6 месяцев 16 дней   |    Скачан:  0 раз
Сидов:  1  [  0 KB/s  ]  
 
     
 
 

солнышко ®

Пол:
Не указан
Стаж:
8 месяцев 1 день
Сообщений:
565

Брак / Martesa / The Marriage
Страна: Косово, Албания
Год выпуска: 2017
Жанр: драма, мелодрама
Продолжительность: 01:37:16
Перевод: Одноголосый закадровый (visanti-vasaer)
Оригинальная аудиодорожка: албанский
Субтитры: русские, английские
Режиссёр: Блерта Зекири / Blerta Zeqiri
В ролях: Албан Укай (Беким), Адриана Матоши (Анита), Генц Салиху (Нол), Вйоса Абази, Кумрие Ходжа, Луан Крюэзиу, Эдон Ризванолли, Каона Сулеймани, Илире Винца Целай, Бислим Мучай
Описание: На свадьбу Бекима с Анитой (людей уже немолодых) из Франции приезжает давний друг Бекима, Нол. Однако никто, в том числе и невеста, не знают, что жених раньше был влюблён в своего друга. Получаем современный нестандартный любовный треугольник с косовско-албанским колоритом.
Сэмпл: https://www.sendspace.com/file/hpvy5k
Качество видео: HDRip-AVC
Формат видео: MKV
Видео: AVC; 752 x 320 (2,35:1); 24 кадров/сек; 810 Кбит/сек
Аудио 1: AAC; 48 КГц; 128 Кбит/сек; 2 канала; VO (Русский, visanti-vasaer)
Аудио 2: AAC; 48 КГц; 128 Кбит/сек; 2 канала; Оригинал (Албанский)
Субтитры 1: русские (отключаемые, SRT)
Субтитры 2: английские (отключаемые, SRT)

MediaInfo

Общее
Формат : Matroska
Версия формата : Version 4 / Version 2
Размер файла : 743 Мбайт
Продолжительность : 1 ч. 37 м.
Общий поток : 1068 Кбит/сек
Программа кодирования : mkvmerge v24.0.0 ('Beyond The Pale') 32-bit
Библиотека кодирования : libebml v1.3.6 + libmatroska v1.4.9
Видео
Идентификатор : 1
Формат : AVC
Формат/Информация : Advanced Video Codec
Профиль формата : High@L3
Настройки формата : CABAC / 7 Ref Frames
Параметр CABAC формата : Да
Параметр RefFrames формата : 7 кадров
Идентификатор кодека : V_MPEG4/ISO/AVC
Продолжительность : 1 ч. 37 м.
Битрейт : 810 Кбит/сек
Ширина : 752 пикселя
Высота : 320 пикселей
Соотношение сторон : 2,35:1
Режим частоты кадров : Постоянный
Частота кадров : 24,000 кадра/сек
Цветовое пространство : YUV
Субдискретизация насыщенности : 4:2:0
Битовая глубина : 8 бит
Тип развёртки : Прогрессивная
Бит/(Пиксели*Кадры) : 0.140
Размер потока : 563 Мбайт (76%)
Библиотека кодирования : x264 core 155 r2901 7d0ff22
Настройки программы : cabac=1 / ref=7 / deblock=1:0:0 / analyse=0x3:0x113 / me=umh / subme=9 / psy=1 / psy_rd=1.00:0.00 / mixed_ref=1 / me_range=24 / chroma_me=1 / trellis=1 / 8x8dct=1 / cqm=0 / deadzone=21,11 / fast_pskip=1 / chroma_qp_offset=-2 / threads=10 / lookahead_threads=1 / sliced_threads=0 / nr=0 / decimate=1 / interlaced=0 / bluray_compat=0 / constrained_intra=0 / bframes=7 / b_pyramid=2 / b_adapt=1 / b_bias=0 / direct=1 / weightb=1 / open_gop=0 / weightp=2 / keyint=240 / keyint_min=24 / scenecut=40 / intra_refresh=0 / rc_lookahead=40 / rc=2pass / mbtree=1 / bitrate=810 / ratetol=1.0 / qcomp=0.60 / qpmin=0 / qpmax=69 / qpstep=4 / cplxblur=20.0 / qblur=0.5 / ip_ratio=1.40 / aq=1:1.00
Default : Да
Forced : Нет
Аудио #1
Идентификатор : 2
Формат : AAC
Формат/Информация : Advanced Audio Codec
Профиль формата : LC
Идентификатор кодека : A_AAC-2
Продолжительность : 1 ч. 37 м.
Битрейт : 128 Кбит/сек
Каналы : 2 канала
Расположение каналов : Front: L R
Частота : 48,0 КГц
Частота кадров : 46,875 кадров/сек (1024 SPF)
Метод сжатия : С потерями
Размер потока : 89,1 Мбайт (12%)
Язык : Russian
Default : Да
Forced : Нет
Аудио #2
Идентификатор : 3
Формат : AAC
Формат/Информация : Advanced Audio Codec
Профиль формата : LC
Идентификатор кодека : A_AAC-2
Продолжительность : 1 ч. 37 м.
Битрейт : 128 Кбит/сек
Каналы : 2 канала
Расположение каналов : Front: L R
Частота : 48,0 КГц
Частота кадров : 46,875 кадров/сек (1024 SPF)
Метод сжатия : С потерями
Размер потока : 89,1 Мбайт (12%)
Язык : Albanian
Default : Нет
Forced : Нет
Текст #1
Идентификатор : 4
Формат : UTF-8
Идентификатор кодека : S_TEXT/UTF8
Идентификатор кодека/Информация : UTF-8 Plain Text
Продолжительность : 1 ч. 33 м.
Битрейт : 94 бит/сек
ElementCount : 1362
Размер потока : 64,7 Кбайт (0%)
Язык : Russian
Default : Нет
Forced : Нет
Текст #2
Идентификатор : 5
Формат : UTF-8
Идентификатор кодека : S_TEXT/UTF8
Идентификатор кодека/Информация : UTF-8 Plain Text
Продолжительность : 1 ч. 33 м.
Битрейт : 57 бит/сек
ElementCount : 1362
Размер потока : 39,1 Кбайт (0%)
Язык : English
Default : Нет
Forced : Нет

Скриншот c названием фильма

Поскольку в фильме присутствует гей-тема, то уместно будет напомнить, что если у кого есть желание ознакомиться с другими художественными и документальными фильмами , сериалами , мультфильмами и аниме, передачами по ЛГБТ-тематике , то на Рутрекере есть тема ЛГБТ в кинематографе . Также смотрите темы Югославское кино и кино стран бывшей Югославии и Кинематограф Албании .
[cybertorrent.net].t2327.torrent 
Торрент: Зарегистрирован [ 2019-04-27 17:09 ] · BCD782470EE8C915EA1F1ED2221838F5AE97EE4A

Скачать .torrent

Скачать

15 KB

Статус: проверено
Скачан: 0 раз
Размер: 743 MB
terms.php
Профиль ЛС
Показать сообщения:    

Текущее время: 14-Ноя 06:43

Часовой пояс: UTC ± 0



Вы не можете начинать темы
Вы не можете отвечать на сообщения
Вы не можете редактировать свои сообщения
Вы не можете удалять свои сообщения
Вы не можете голосовать в опросах
Вы не можете прикреплять файлы к сообщениям
Вы можете скачивать файлы