Статистика раздачи
Качаю: [ 1 ]
Скачал: [ 2 ]
 
     
 
 

MAGNAT ®

Пол:
Мужской
Стаж:
2 года 5 месяцев
Сообщений:
10823

Откуда: Москва

Круиз по джунглям / Jungle Cruise
- Страна: США
Студия: 7 Bucks Productions, Davis Entertainment, Flynn Picture Company, TSG Entertainment, Walt Disney Pictures, Zaftig Films
Жанр: Приключения, комедия, фэнтези
Год выпуска: 2021
Продолжительность: 02:07:18
Перевод 1: Любительский (многоголосый закадровый) | HDRezka Studio RUS
Перевод 2: Любительский (многоголосый закадровый) | HDRezka Studio UKR
Субтитры: Русские (Forced, Full) Украинские (Forced) Английские (Full, Forced, SDH)
Оригинальная аудиодорожка: Английский-Режиссер: Жауме Кольет-Серра / Jaume Collet-Serra-В ролях: Эмили Блант, Дуэйн Джонсон, Эдгар Рамирес, Джек Уайтхолл, Джесси Племонс, Пол Джаматти, Вероника Фалькон, Энди Найман, Филипп Максимилиан, Дэни Ровира-Описание: Отважная исследовательница дикой природы Лили Хоутон намерена отправиться в верховья Амазонки, чтобы найти легендарное дерево, которое – согласно преданиям южноамериканских индейских племен – обладает магическими целебными свойствами. Сопровождать Лили будут её утонченный брат Макгрегор и бесшабашный капитан круизного пароходика Фрэнк. В дебрях джунглей путников будут подстерегать не только смертельно опасные представители амазонской флоры и фауны, но и ловушки, подстроенные участниками конкурирующей экспедиции, и даже встречи со сверхъестественным.-Тип релиза: WEB-DL 1080p | Jungle.Cruise.2021.1080p.DSNP.WEB-DL.x264 |
Контейнер: MKV
Видео: MPEG-4 AVC, 1920x1080, 6762 Кbit/s, 23.976 fps, 0.136 bit/pixel
Аудио 1: 48 kHz | AC3 | Dolby Digital | 5,1 | 448 kbps | | HDRezka Studio
Аудио 2: 48 kHz | AC3 | Dolby Digital | 5,1 | 384 kbps | | HDRezka Studio
Аудио 3: 48 kHz | E-AC3 | Dolby Digital Atmos | 5,1 | 768 kbps | | Original-

MediaInfo

Код:
General
Unique ID : 177727230393970020862207019848440969175 (0x85B504FD9DBD33301761DDA748FF77D7)
Complete name : D:\Фильмы\HD\Jungle Cruise (2021) WEB-DL 1080p.mkv
Format : Matroska
Format version : Version 4
File size : 7.44 GiB
Duration : 2 h 7 min
Overall bit rate mode : Variable
Overall bit rate : 8 366 kb/s
Movie name : Круиз по джунглям / Jungle Cruise (2021) WEB-DL 1080p
Encoded date : UTC 2021-08-03 18:07:47
Writing application : mkvmerge v60.0.0 ('Are We Copies?') 64-bit
Writing library : libebml v1.4.2 + libmatroska v1.6.4
Cover : Yes
Attachments : cover.png
Video
ID : 1
Format : AVC
Format/Info : Advanced Video Codec
Format profile : High@L4
Format settings : CABAC / 4 Ref Frames
Format settings, CABAC : Yes
Format settings, Reference : 4 frames
Codec ID : V_MPEG4/ISO/AVC
Duration : 2 h 7 min
Bit rate mode : Variable
Bit rate : 6 762 kb/s
Maximum bit rate : 12.7 Mb/s
Width : 1 920 pixels
Height : 1 080 pixels
Display aspect ratio : 16:9
Frame rate mode : Constant
Frame rate : 23.976 (24000/1001) FPS
Color space : YUV
Chroma subsampling : 4:2:0
Bit depth : 8 bits
Scan type : Progressive
Bits/(Pixel*Frame) : 0.136
Stream size : 6.01 GiB (81%)
Title : Круиз по джунглям (2021) WEB-DL 1080p
Language : English
Default : Yes
Forced : No
Color range : Limited
Color primaries : BT.709
Transfer characteristics : BT.709
Matrix coefficients : BT.709
Audio #1
ID : 2
Format : AC-3
Format/Info : Audio Coding 3
Commercial name : Dolby Digital
Codec ID : A_AC3
Duration : 2 h 7 min
Bit rate mode : Constant
Bit rate : 448 kb/s
Channel(s) : 6 channels
Channel layout : L R C LFE Ls Rs
Sampling rate : 48.0 kHz
Frame rate : 31.250 FPS (1536 SPF)
Compression mode : Lossy
Stream size : 408 MiB (5%)
Title : Любительский (многоголосый закадровый) HDRezka Studio
Language : Russian
Service kind : Complete Main
Default : Yes
Forced : Yes
Audio #2
ID : 3
Format : AC-3
Format/Info : Audio Coding 3
Commercial name : Dolby Digital
Codec ID : A_AC3
Duration : 2 h 7 min
Bit rate mode : Constant
Bit rate : 384 kb/s
Channel(s) : 6 channels
Channel layout : L R C LFE Ls Rs
Sampling rate : 48.0 kHz
Frame rate : 31.250 FPS (1536 SPF)
Compression mode : Lossy
Stream size : 350 MiB (5%)
Title : Любительский (многоголосый закадровый) HDRezka Studio (UKR)
Language : Ukrainian
Service kind : Complete Main
Default : No
Forced : No
Audio #3
ID : 4
Format : E-AC-3 JOC
Format/Info : Enhanced AC-3 with Joint Object Coding
Commercial name : Dolby Digital Plus with Dolby Atmos
Codec ID : A_EAC3
Duration : 2 h 7 min
Bit rate mode : Constant
Bit rate : 768 kb/s
Channel(s) : 6 channels
Channel layout : L R C LFE Ls Rs
Sampling rate : 48.0 kHz
Frame rate : 31.250 FPS (1536 SPF)
Compression mode : Lossy
Stream size : 699 MiB (9%)
Title : Английский | English
Language : English
Service kind : Complete Main
Default : No
Forced : No
Complexity index : 16
Number of dynamic objects : 15
Bed channel count : 1 channel
Bed channel configuration : LFE
Text #1
ID : 5
Format : UTF-8
Codec ID : S_TEXT/UTF8
Codec ID/Info : UTF-8 Plain Text
Duration : 1 h 48 min
Bit rate : 5 b/s
Count of elements : 114
Stream size : 4.33 KiB (0%)
Title : Русские (Forced) [HDRezka Studio]
Language : Russian
Default : Yes
Forced : No
Text #2
ID : 6
Format : UTF-8
Codec ID : S_TEXT/UTF8
Codec ID/Info : UTF-8 Plain Text
Duration : 1 h 56 min
Bit rate : 100 b/s
Count of elements : 1542
Stream size : 85.7 KiB (0%)
Title : Русские (Full)
Language : Russian
Default : No
Forced : No
Text #3
ID : 7
Format : UTF-8
Codec ID : S_TEXT/UTF8
Codec ID/Info : UTF-8 Plain Text
Duration : 1 h 52 min
Bit rate : 4 b/s
Count of elements : 76
Stream size : 3.40 KiB (0%)
Title : Украинскиe (Forced) [HDrezka Studio]
Language : Ukrainian
Default : No
Forced : No
Text #4
ID : 8
Format : UTF-8
Codec ID : S_TEXT/UTF8
Codec ID/Info : UTF-8 Plain Text
Duration : 2 h 6 min
Bit rate : 55 b/s
Count of elements : 1643
Stream size : 51.1 KiB (0%)
Title : Английские (Full)
Language : English
Default : No
Forced : No
Text #5
ID : 9
Format : UTF-8
Codec ID : S_TEXT/UTF8
Codec ID/Info : UTF-8 Plain Text
Duration : 2 h 6 min
Bit rate : 65 b/s
Count of elements : 2079
Stream size : 61.0 KiB (0%)
Title : Английские (SDH)
Language : English
Default : No
Forced : No
Text #6
ID : 10
Format : UTF-8
Codec ID : S_TEXT/UTF8
Codec ID/Info : UTF-8 Plain Text
Duration : 1 h 16 min
Bit rate : 3 b/s
Count of elements : 68
Stream size : 1.76 KiB (0%)
Title : Английские (Forced)
Language : English
Default : No
Forced : No

Скриншоты

Профиль [ЛС]
Показать сообщения:    

Текущее время: 26-Сен 01:21

Часовой пояс: UTC ± 0



Вы не можете начинать темы
Вы не можете отвечать на сообщения
Вы не можете редактировать свои сообщения
Вы не можете удалять свои сообщения
Вы не можете голосовать в опросах
Вы не можете прикреплять файлы к сообщениям
Вы не можете скачивать файлы