Статистика раздачи
Размер:  2,18 GB   |    Зарегистрирован:  6 месяцев 16 дней   |    Скачан:  0 раз

Полного источника не было: Никогда

 
     
 
 

karlll ®

Пол:
Не указан
Стаж:
8 месяцев 1 день
Сообщений:
171

Следующее поколение / Next Gen
Страна: Канада, Китай, США
Жанр: приключения, фантастика, боевик
Продолжительность: 01:45:54
Год выпуска: 2018
Перевод: Профессиональный (дублированный) - АРК-ТВ VSI International
Русские субтитры: есть

Режиссёр: Кевин Р. Адамс / Kevin R. Adams, Джо Ксандер / Joe Ksander

Роли озвучивали: Джон Красински, Шарлин Йи, Джейсон Судейкис, Майкл Пенья, Дэвид Кросс, Констанс Ву, Киана Ледэ, Анна Акана, Иссак Райан Браун, Реба Бур.
Описание: Недалекое будущее. Девушке-подростку Мэй приходится расти в изоляции: папа ушёл из семьи, а мама больше интересуется новыми технологиями, чем собственной дочерью. Однажды она приводит Мэй на выставку последних достижений науки и техники, где та случайно помогает сбежать из лаборатории роботу последнего поколения. Наконец-то у подростка появляется настоящий друг.
Семпл
Качество: WEB-DLRip
Формат: AVI
Видео: 720x304 (2.37:1), 24 fps, XviD MPEG-4 ~2101 kbps avg, 0.40 bit/pixel
Аудио: 48 kHz, AC3 Dolby Digital, 3/2 (L,C,R,l,r) + LFE ch, ~384 kbps - дубляж
Аудио: 48 kHz, AC3 Dolby Digital, 3/2 (L,C,R,l,r) + LFE ch, ~448 kbps - оригинал
Субтитры: русские, английские (полные, для слабослышащих)

Подробные технические данные

General
Complete name : H:\Next.Gen.2018.web-dlrip_[2.18]_[teko]\Next.Gen.2018.web-dlrip_[2.18].avi
Format : AVI
Format/Info : Audio Video Interleave
Format profile : OpenDML
File size : 2.18 GiB
Duration : 1h 45mn
Overall bit rate : 2 941 Kbps
Writing application : VirtualDubMod 1.5.10.3 | www.virtualdub-fr.org || (build 2550/release)
Writing library : VirtualDubMod build 2550/release
Video
ID : 0
Format : MPEG-4 Visual
Format profile : Advanced Simple@L5
Format settings, BVOP : 2
Format settings, QPel : No
Format settings, GMC : No warppoints
Format settings, Matrix : Custom
Codec ID : XVID
Codec ID/Hint : XviD
Duration : 1h 45mn
Bit rate : 2 091 Kbps
Width : 720 pixels
Height : 304 pixels
Display aspect ratio : 2.35:1
Frame rate : 24.000 fps
Color space : YUV
Chroma subsampling : 4:2:0
Bit depth : 8 bits
Scan type : Progressive
Compression mode : Lossy
Bits/(Pixel*Frame) : 0.398
Stream size : 1.55 GiB (71%)
Writing library : XviD 73
Audio #1
ID : 1
Format : AC-3
Format/Info : Audio Coding 3
Mode extension : CM (complete main)
Format settings, Endianness : Big
Codec ID : 2000
Duration : 1h 45mn
Bit rate mode : Constant
Bit rate : 384 Kbps
Channel(s) : 6 channels
Channel positions : Front: L C R, Side: L R, LFE
Sampling rate : 48.0 KHz
Frame rate : 31.250 fps (1536 spf)
Compression mode : Lossy
Stream size : 291 MiB (13%)
Alignment : Split accross interleaves
Interleave, duration : 42 ms (1.00 video frame)
Interleave, preload duratio : 500 ms
Audio #2
ID : 2
Format : AC-3
Format/Info : Audio Coding 3
Mode extension : CM (complete main)
Format settings, Endianness : Big
Codec ID : 2000
Duration : 1h 45mn
Bit rate mode : Constant
Bit rate : 448 Kbps
Channel(s) : 6 channels
Channel positions : Front: L C R, Side: L R, LFE
Sampling rate : 48.0 KHz
Frame rate : 31.250 fps (1536 spf)
Compression mode : Lossy
Stream size : 339 MiB (15%)
Alignment : Split accross interleaves
Interleave, duration : 42 ms (1.00 video frame)
Interleave, preload duratio : 500 ms
Релиз группы:
--
[cybertorrent.net].t2322.torrent 
Торрент: Зарегистрирован [ 2019-04-27 17:09 ] · 61F2101333B6D16E9EEC14D3BDA3D1325236FC1B

Скачать .torrent

Скачать

12 KB

Статус: проверено
Скачан: 0 раз
Размер: 2,18 GB
terms.php
Профиль ЛС
Показать сообщения:    

Текущее время: 14-Ноя 04:04

Часовой пояс: UTC ± 0



Вы не можете начинать темы
Вы не можете отвечать на сообщения
Вы не можете редактировать свои сообщения
Вы не можете удалять свои сообщения
Вы не можете голосовать в опросах
Вы не можете прикреплять файлы к сообщениям
Вы можете скачивать файлы