Статистика раздачи
Размер:  2,06 GB   |    Зарегистрирован:  6 месяцев 16 дней   |    Скачан:  0 раз

Полного источника не было: Никогда

 
     
 
 

Гость ®

Пол:
Не указан

Тройная граница / Triple Frontier
Страна: США
Жанр: боевик, криминал, приключения
Год выпуска: 2019
Продолжительность: 02:05:20

Перевод: Авторский (одноголосый закадровый) Юрий Живов
Субтитры: нет
Режиссер: Джей Си Чендор / J.C. Chandor
В ролях: Бен Аффлек, Чарли Ханнэм, Адриа Архона, Педро Паскаль, Оскар Айзек, Гаррет Хедлунд, Шейла Ванд, Рейнальдо Гальегос, Кристин Хорн
Описание: Небольшая территория, расположенная на границе трех южно-американских стран – Аргентины, Бразилии и Парагвая, является настоящим раем для криминала. Здесь процветают торговцы наркотиками, террористы и мафиози, с которыми на протяжении многих лет безрезультатно пытаются бороться подразделения специального назначения. И вот однажды группа офицеров в составе пяти человек решает действовать самостоятельно. Они устали наблюдать бессмысленные смерти своих сослуживцев и попытаются победить криминал своими методами. Решив ограбить одного местного криминального авторитета, они рассчитывают не только обеспечить себе безбедную старость, но и лишить финансирования крупный наркокартель...
Доп. информация: За перевод Юрия Живова огромная благодарность участникам группы Эра VHS.

Сэмпл: http://multi-up.com/1230495
Качество видео: WEBRip (Исходник WEBRip 1080p)
Формат видео: AVI
Видео: XviD 73, 704x336, (2,09:1), 24,000 fps, 1893 Кбит/с, 8 бит, 0.33 bit/pixel
Аудио: Русский (АС3, 6 ch (Front: L C R, Side: L R, LFE), 48,0 KHz, 448 Kbps

MediaInfo

Общее
Полное имя : D:\Фильмы на трекер\Тройная граница (боевик, криминал, приключения 2019 год).avi
Формат : AVI
Формат/Информация : Audio Video Interleave
Профиль формата : OpenDML
Размер файла : 2,06 Гбайт
Продолжительность : 2 ч. 5 м.
Общий поток : 2354 Кбит/сек
Программа кодирования : VirtualDubMod 1.5.10.2 (build 2540/release)
Библиотека кодирования : VirtualDubMod build 2540/release
Видео
Идентификатор : 0
Формат : MPEG-4 Visual
Профиль формата : Advanced Simple@L5
Параметр BVOP формата : 2
Параметр QPel формата : Нет
Параметр GMC формата : Без точки перехода
Параметр матрицы формата : Выборочная
Идентификатор кодека : XVID
Идентификатор кодека/Подсказка : XviD
Продолжительность : 2 ч. 5 м.
Битрейт : 1893 Кбит/сек
Ширина : 704 пикселя
Высота : 336 пикселей
Соотношение сторон : 2,095
Частота кадров : 24,000 кадра/сек
Цветовое пространство : YUV
Субдискретизация насыщенности : 4:2:0
Битовая глубина : 8 бит
Тип развёртки : Прогрессивная
Метод сжатия : С потерями
Бит/(Пиксели*Кадры) : 0.334
Размер потока : 1,66 Гбайт (80%)
Библиотека кодирования : XviD 73
Аудио
Идентификатор : 1
Формат : AC-3
Формат/Информация : Audio Coding 3
Расширение режима : CM (complete main)
Параметр Endianness формата : Big
Идентификатор кодека : 2000
Продолжительность : 2 ч. 5 м.
Вид битрейта : Постоянный
Битрейт : 448 Кбит/сек
Каналы : 6 каналов
Расположение каналов : Front: L C R, Side: L R, LFE
Частота : 48,0 КГц
Частота кадров : 31,250 кадров/сек (1536 spf)
Метод сжатия : С потерями
Размер потока : 402 Мбайт (19%)
Выравнивание : Разделение по промежуткам
Продолжительность промежутка : 42 мс. (1,00 видеокадр)
Время предзагрузки промежутка : 500 мс.

Скриншот c названием фильма

Скриншоты


-
Сообщения из этой темы [1 шт.] были выделены в отдельную тему Оффтоп из: Тройная граница / Triple Frontier (Джей Си Чендор / J.C. Chandor) [2019, США, боевик, криминал, приключения, WEBRip] AVO (Юрий Живов) [5723818]
порошков
[cybertorrent.net].t2319.torrent 
Торрент: Зарегистрирован [ 2019-04-27 17:09 ] · 159B184A59FC31C929C154C3D55997E2EF737A6A

Скачать .torrent

Скачать

11 KB

Статус: проверено
Скачан: 0 раз
Размер: 2,06 GB
terms.php
Показать сообщения:    

Текущее время: 14-Ноя 04:13

Часовой пояс: UTC ± 0



Вы не можете начинать темы
Вы не можете отвечать на сообщения
Вы не можете редактировать свои сообщения
Вы не можете удалять свои сообщения
Вы не можете голосовать в опросах
Вы не можете прикреплять файлы к сообщениям
Вы можете скачивать файлы