Статистика раздачи
Нет
 
     
 
 

MAGNAT ®

Пол:
Мужской
Стаж:
2 года 5 месяцев
Сообщений:
10823

Откуда: Москва

Бартковяк / Bartkowiak- Страна: Польша
Жанр: Боевик, спорт
Год выпуска: 2021
Продолжительность: 01:32:17-Перевод: Профессиональный (дублированный) -
SDI Media RU
по заказу Netflix
Субтитры: Русские (форсированные, полные), украинские (полные)-Режиссер: Даниэль Маркович / Daniel Markowicz-В ролях: Рафаль Заверуха, Данута Стенка, Юзеф Павловский, Януш Хабёр, Ян Фрыч, Бартломей Топа, Энтони Павлицкий, Шимон Бобровски, Зофия Домалик, Демиан Мажевски-Описание: Фильм рассказывает о бывшем спортсмене-мастере боевых искусств, который после смерти близкого человека вынужден вернуться на ринг. Чтобы заново устроить свою жизнь, молодому человеку придется столкнуться с преступным миром…-Качество видео: WEB-DLRip
Формат видео: AVI
Видео: 720x304 (2.35:1), 25 fps, XviD ~ 1808 Kbps avg, 0.330 bit/pixel
Аудио: AC3, 48 kHz, 6 ch, 448 Kbps | SDI Media RU
Формат субтитров: softsub (SRT)

MediaInfo

General
Complete name : Downloads\Bartkowiak.2021.NF.WEB-DLRip\Bartkowiak.2021.NF.WEB-DLRip.avi
Format : AVI
Format/Info : Audio Video Interleave
File size : 1.46 GiB
Duration : 1 h 32 min
Overall bit rate : 2 266 kb/s
Writing application : VirtualDubModRus 1.5.10.2 (build 2542/release)
Writing library : VirtualDubMod build 2542/release
Video #0
ID : 0
Format : MPEG-4 Visual
Format profile : Advanced Simple@L5
Format settings : BVOP1 / Custom Matrix
Format settings, BVOP : 1
Format settings, QPel : No
Format settings, GMC : No warppoints
Format settings, Matrix : Custom
Codec ID : XVID
Codec ID/Hint : XviD
Duration : 1 h 32 min
Bit rate : 1 808 kb/s
Width : 720 pixels
Height : 304 pixels
Display aspect ratio : 2.35:1
Frame rate : 25.000 FPS
Color space : YUV
Chroma subsampling : 4:2:0
Bit depth : 8 bits
Scan type : Progressive
Compression mode : Lossy
Bits/(Pixel*Frame) : 0.330
Stream size : 1.17 GiB (80%)
Writing library : XviD 73
Audio #1
ID : 1
Format : AC-3
Format/Info : Audio Coding 3
Codec ID : 2000
Duration : 1 h 32 min
Bit rate mode : Constant
Bit rate : 448 kb/s
Channel(s) : 6 channels
Channel positions : Front: L C R, Side: L R, LFE
Sampling rate : 48.0 kHz
Frame rate : 31.250 FPS (1536 SPF)
Bit depth : 16 bits
Compression mode : Lossy
Stream size : 296 MiB (20%)
Alignment : Split accross interleaves
Interleave, duration : 40 ms (1.00 video frame)
Interleave, preload duration : 500 ms
Service kind : Complete Main

Скриншот c названием фильма

Скриншоты

Профиль [ЛС]
Показать сообщения:    

Текущее время: 26-Сен 00:55

Часовой пояс: UTC ± 0



Вы не можете начинать темы
Вы не можете отвечать на сообщения
Вы не можете редактировать свои сообщения
Вы не можете удалять свои сообщения
Вы не можете голосовать в опросах
Вы не можете прикреплять файлы к сообщениям
Вы не можете скачивать файлы