Статистика раздачи
Размер:  761 MB   |    Зарегистрирован:  6 месяцев 24 дня   |    Скачан:  0 раз

Полного источника не было: Никогда

 
     
 
 

karlll ®

Пол:
Не указан
Стаж:
8 месяцев 9 дней
Сообщений:
171

Спаситель Земли / Спаситель планеты Земля / Saviour of the Earth / Computer haekjeonham pokpa daejakjeon
Страна: Южная Корея
Жанр: Мультфильм, Боевик, Фантастика, Приключения
Продолжительность: 01:04:55
Год выпуска: 1983
Перевод: Одноголосый закадровый - "Трамвай-фильм"
Русские субтитры: нет
Режиссёр: Су-Йонг Чон, Рой Томас / Su-yong Jeong, Roy Thomas
Описание: Акты терроризма происходят в США, Японии, Франции и на Тихом океане. Человек, стоящий за этими событиями - доктор Батлер, который пытается управлять миром с помощью своих мощных компьютеров. Чтобы спасти человечество, вызваны доктор Ким, Шейла и Кит, известные как «Спасители Земли». Последняя битва, смертельная игра, будет происходить внутри компьютера.
Доп. информация: Мультфильм на тему виртуальная реальность, для фанатов фильма "Трон" 1982 года.
Семпл: http://sendfile.su/1491102
Качество: VHSRip
Формат: AVI
Видео: 640x480 (1.33:1), 25 fps, XviD build 50 ~1543 kbps avg, 0.20 bit/pixel
Аудио: 44.100 kHz, MPEG Layer 3, 2 ch, ~128.00 kbps avg
Субтитры: отсутствуют

Подробные технические данные

General
Complete name : G:\Фильмы\Savior of the Earth (1983).avi
Format : AVI
Format/Info : Audio Video Interleave
File size : 761 MiB
Duration : 1 h 4 min
Overall bit rate : 1 639 kb/s
Video
ID : 0
Format : MPEG-4 Visual
Format profile : Simple@L3
Format settings, BVOP : No
Format settings, QPel : No
Format settings, GMC : No warppoints
Format settings, Matrix : Default (H.263)
Codec ID : XVID
Codec ID/Hint : XviD
Duration : 1 h 4 min
Bit rate : 1 499 kb/s
Width : 640 pixels
Height : 480 pixels
Display aspect ratio : 4:3
Frame rate : 25.000 FPS
Color space : YUV
Chroma subsampling : 4:2:0
Bit depth : 8 bits
Scan type : Progressive
Compression mode : Lossy
Bits/(Pixel*Frame) : 0.195
Stream size : 696 MiB (91%)
Writing library : XviD 1.2.1 (UTC 2008-12-04)
Audio
ID : 1
Format : MPEG Audio
Format version : Version 1
Format profile : Layer 3
Format settings : Joint stereo / MS Stereo
Codec ID : 55
Codec ID/Hint : MP3
Duration : 42 min 23 s
Source duration : 1 h 4 min
Bit rate mode : Constant
Bit rate : 128 kb/s
Channel(s) : 2 channels
Sampling rate : 44.1 kHz
Compression mode : Lossy
Stream size : 59.4 MiB (8%)
Alignment : Aligned on interleaves
Interleave, duration : 26 ms (0.65 video frame)
Writing library : LAME3.98

Скриншоты

[cybertorrent.net].t2318.torrent 
Торрент: Зарегистрирован [ 2019-04-27 17:09 ] · 73B7B5F79BF8379F870C9046113B41B2D9B9BAC9

Скачать .torrent

Скачать

15 KB

Статус: проверено
Скачан: 0 раз
Размер: 761 MB
terms.php
Профиль [ЛС]
Показать сообщения:    

Текущее время: 22-Ноя 00:14

Часовой пояс: UTC ± 0



Вы не можете начинать темы
Вы не можете отвечать на сообщения
Вы не можете редактировать свои сообщения
Вы не можете удалять свои сообщения
Вы не можете голосовать в опросах
Вы не можете прикреплять файлы к сообщениям
Вы можете скачивать файлы