Статистика раздачи
Нет
 
     
 
 

MAGNAT ®

Пол:
Мужской
Стаж:
2 года 5 месяцев
Сообщений:
10768

Откуда: Москва

Пороховой коктейль / Gunpowder Milkshake- Страна: Франция, Германия, США
Жанр: Боевик
Год выпуска: 2021
Продолжительность: 01:49:52-Перевод: Профессиональный (дублированный) -
iTunes
Субтитры: Русские (форсированные, полные)-Режиссер: Навот Папушадо / Navot Papushado-В ролях: Карен Гиллан, Лина Хиди, Карла Гуджино, Мишель Йео, Анджела Бассетт, Пол Джаматти, Джо Бобин, Фрейя Аллан, Эд Бирч, Ралф Айнесон-Описание: Быть киллером — весело и просто. Особенно для Сэм, которая от матери унаследовала талант к заказным убийствам. Но когда девушке приходится пойти наперекор собственному боссу, она становится мишенью целой армии головорезов. К счастью, мама и её бывшие напарницы готовы помочь угостить недоброжелателей своим фирменным «пороховым коктейлем».
Качество видео: WEB-DLRip
Формат видео: AVI
Видео: 720x304 (2.35:1), 25 fps, XviD, 1509 Kbps avg, 0.276 bit/pixel
Аудио: AC3, 48 kHz, 6 ch, 384 kbps | iTunes
Формат субтитров: softsub (SRT)

MediaInfo

General
Complete name : Downloads\Gunpowder.Milkshake.2021.WEB-DLRip\Gunpowder.Milkshake.2021.WEB-DLRip.avi
Format : AVI
Format/Info : Audio Video Interleave
File size : 1.46 GiB
Duration : 1 h 49 min
Overall bit rate : 1 903 kb/s
Writing application : VirtualDubModRus 1.5.10.2 (build 2542/release)
Writing library : VirtualDubMod build 2542/release
Video #0
ID : 0
Format : MPEG-4 Visual
Format profile : Advanced Simple@L5
Format settings : BVOP1 / Custom Matrix
Format settings, BVOP : 1
Format settings, QPel : No
Format settings, GMC : No warppoints
Format settings, Matrix : Custom
Codec ID : XVID
Codec ID/Hint : XviD
Duration : 1 h 49 min
Bit rate : 1 509 kb/s
Width : 720 pixels
Height : 304 pixels
Display aspect ratio : 2.35:1
Frame rate : 25.000 FPS
Color space : YUV
Chroma subsampling : 4:2:0
Bit depth : 8 bits
Scan type : Progressive
Compression mode : Lossy
Bits/(Pixel*Frame) : 0.276
Stream size : 1.16 GiB (79%)
Writing library : XviD 73
Audio #1
ID : 1
Format : AC-3
Format/Info : Audio Coding 3
Codec ID : 2000
Duration : 1 h 49 min
Bit rate mode : Constant
Bit rate : 384 kb/s
Channel(s) : 6 channels
Channel positions : Front: L C R, Side: L R, LFE
Sampling rate : 48.0 kHz
Frame rate : 31.250 FPS (1536 SPF)
Bit depth : 16 bits
Compression mode : Lossy
Stream size : 302 MiB (20%)
Alignment : Split accross interleaves
Interleave, duration : 40 ms (1.00 video frame)
Interleave, preload duration : 500 ms
Service kind : Complete Main

Скриншот c названием фильма

Скриншоты

Профиль [ЛС]
Показать сообщения:    

Текущее время: 19-Сен 05:46

Часовой пояс: UTC ± 0



Вы не можете начинать темы
Вы не можете отвечать на сообщения
Вы не можете редактировать свои сообщения
Вы не можете удалять свои сообщения
Вы не можете голосовать в опросах
Вы не можете прикреплять файлы к сообщениям
Вы не можете скачивать файлы