Статистика раздачи
Нет
 
     
 
 

MAGNAT ®

Пол:
Мужской
Стаж:
2 года 5 месяцев
Сообщений:
10823

Откуда: Москва

От любви не убежишь / Resort to Love
«Paradise is About to Get Complicated»
- Страна: США
Жанр: Мелодрама, комедия
Год выпуска: 2021
Продолжительность: 01:32:17
Перевод: Профессиональный (дублированный) -
Невафильм
Субтитры: Русские (форсированные, полные), украинские (полные)-Режиссер: Стивен К. Цутида / Steven K. Tsuchida-В ролях: Кристина Милиан, Синква Уоллс, Джей Фэро, Александр Ходж, Карен Обилом, Джерил Прескотт, Т.Дж. Пауэр, Тимберли Хилл, Кристиани Питтс, Сильвен Страйк-Описание: Певица Эрика приезжает на курортный остров с концертом и встречает здесь своего бывшего парня Джейсона, который вот-вот сыграет свадьбу. Былые чувства вновь вспыхивают в Эрике, и она понимает, что Джейсон ее судьба. Однако брат жениха, видя, как между бывшими влюбленными разгорается страсть, готов на все, чтобы помешать им сорвать свадьбу.
Качество видео: WEB-DLRip
Формат видео: AVI
Видео: 704x352 (2.000), 24 fps, XviD, 1598 Kbps avg, 0.269 bit/pixel
Аудио: AC3, 48 kHz, 6 ch, 448 Kbps| Невафильм
Формат субтитров: softsub (SRT)

MediaInfo

General
Complete name : Downloads\Resort.to.Love.2021.NF.WEB-DLRip\Resort.to.Love.2021.NF.WEB-DLRip.avi
Format : AVI
Format/Info : Audio Video Interleave
File size : 1.46 GiB
Duration : 1 h 41 min
Overall bit rate : 2 056 kb/s
Writing application : VirtualDubModRus 1.5.10.2 (build 2542/release)
Writing library : VirtualDubMod build 2542/release
Video #0
ID : 0
Format : MPEG-4 Visual
Format profile : Advanced Simple@L5
Format settings : BVOP1 / Custom Matrix
Format settings, BVOP : 1
Format settings, QPel : No
Format settings, GMC : No warppoints
Format settings, Matrix : Custom
Codec ID : XVID
Codec ID/Hint : XviD
Duration : 1 h 41 min
Bit rate : 1 598 kb/s
Width : 704 pixels
Height : 352 pixels
Display aspect ratio : 2.000
Frame rate : 24.000 FPS
Color space : YUV
Chroma subsampling : 4:2:0
Bit depth : 8 bits
Scan type : Progressive
Compression mode : Lossy
Bits/(Pixel*Frame) : 0.269
Stream size : 1.14 GiB (78%)
Writing library : XviD 73
Audio #1
ID : 1
Format : AC-3
Format/Info : Audio Coding 3
Codec ID : 2000
Duration : 1 h 41 min
Bit rate mode : Constant
Bit rate : 448 kb/s
Channel(s) : 6 channels
Channel positions : Front: L C R, Side: L R, LFE
Sampling rate : 48.0 kHz
Frame rate : 31.250 FPS (1536 SPF)
Bit depth : 16 bits
Compression mode : Lossy
Stream size : 326 MiB (22%)
Alignment : Split accross interleaves
Interleave, duration : 42 ms (1.00 video frame)
Interleave, preload duration : 500 ms
Service kind : Complete Main

Скриншот c названием фильма

Скриншоты

Профиль [ЛС]
Показать сообщения:    

Текущее время: 25-Сен 23:51

Часовой пояс: UTC ± 0



Вы не можете начинать темы
Вы не можете отвечать на сообщения
Вы не можете редактировать свои сообщения
Вы не можете удалять свои сообщения
Вы не можете голосовать в опросах
Вы не можете прикреплять файлы к сообщениям
Вы не можете скачивать файлы