Статистика раздачи
Нет
 
     
 
 

MAGNAT ®

Пол:
Мужской
Стаж:
2 года 5 месяцев
Сообщений:
10768

Откуда: Москва

Последний наемник
Le dernier mercenaire / The Last Mercenary
Страна: Франция
Жанр: боевик, комедия
Год выпуска: 2021
Продолжительность: 01:52:26
Перевод: Профессиональный (полное дублирование) [Пифагор / Netflix]
Субтитры: русские (форсированные, полные)
Оригинальная аудиодорожка: нет
Режиссер: Давид Шарон / David Charhon
В ролях: Жан-Клод Ван Дамм, Альбан Иванов, Патрик Тимси, Самир Декацца, Асса Силла, Эрик Жюдор, Миу-Миу, Валери Каприски, Мишель Кремадес, Джимо
Описание: Осуждённый тайный агент вынужден вернуться во Францию, чтобы спасти своего сына, которого подставила международная террористическая организация.
Качество видео: WEB-DLRip-AVC
Формат видео: MKV
Видео кодек: AVC
Аудио кодек: AC3
Видео: AVC, 1519 Кбит/сек, 900x450 (2.000), 24 кадр/сек
Аудио: AC3, 384 Кбит/сек, 48 КГц, 5.1 - русский

x264/MediaInfo

---[Information] [30.07.2021 13:56:53] x264 [info]: frame I:1508 Avg QP:17.37 size: 45537
---[Information] [30.07.2021 13:56:53] x264 [info]: frame P:41487 Avg QP:19.82 size: 15620
---[Information] [30.07.2021 13:56:53] x264 [info]: frame B:118925 Avg QP:22.59 size: 4752
---[Information] [30.07.2021 13:56:53] x264 [info]: consecutive B-frames: 3.2% 4.9% 13.2% 36.0% 21.0% 16.1% 2.3% 1.0% 0.3% 0.2% 0.1% 0.1% 0.2% 0.3% 1.0%
General
Unique ID : 292905465931068510198543710642127347953 (0xDC5B8A6FFA1F3A96A1825CCE7AB1A0F1)
Complete name : J:\The.Last.Mercenary.2021\The.Last.Mercenary.2021.WEB-DLRip.x264.Rus.stalkerok.New-Team.mkv
Format : Matroska
Format version : Version 4
File size : 1.50 GiB
Duration : 1 h 52 min
Overall bit rate : 1 906 kb/s
Movie name : Le dernier mercenaire (2021) | Rip by stalkerok
Encoded date : UTC 2021-07-30 11:09:03
Writing application : mkvmerge v59.0.0 ('Shining Star') 64-bit
Writing library : libebml v1.4.2 + libmatroska v1.6.4
Video
ID : 1
Format : AVC
Format/Info : Advanced Video Codec
Format profile : High@L4.1
Format settings : CABAC / 12 Ref Frames
Format settings, CABAC : Yes
Format settings, Reference frames : 12 frames
Codec ID : V_MPEG4/ISO/AVC
Duration : 1 h 52 min
Bit rate : 1 520 kb/s
Width : 900 pixels
Height : 450 pixels
Display aspect ratio : 2.000
Frame rate mode : Constant
Frame rate : 24.000 FPS
Color space : YUV
Chroma subsampling : 4:2:0
Bit depth : 8 bits
Scan type : Progressive
Bits/(Pixel*Frame) : 0.156
Stream size : 1.19 GiB (80%)
Writing library : x264 core 164 r3065+55M 280faca t_mod_New [(8 & 10)-bit@all X86_64]
Encoding settings : cabac=1 / ref=12 / deblock=1:-3:-2 / analyse=0x3:0x133 / me=umh / subme=10 / psy=1 / fade_compensate=0.00 / psy_rd=1.00:0.00 / mixed_ref=1 / me_range=32 / chroma_me=1 / trellis=2 / 8x8dct=1 / cqm=0 / deadzone=21,11 / fast_pskip=0 / chroma_qp_offset=-2 / threads=12 / lookahead_threads=3 / sliced_threads=0 / nr=0 / decimate=1 / interlaced=0 / bluray_compat=0 / constrained_intra=0 / fgo=0 / bframes=14 / b_pyramid=2 / b_adapt=2 / b_bias=0 / direct=3 / weightb=1 / open_gop=0 / weightp=2 / keyint=240 / keyint_min=23 / scenecut=40 / intra_refresh=0 / rc_lookahead=60 / rc=crf / mbtree=0 / crf=19.5000 / qcomp=0.65 / qpmin=0:0:0 / qpmax=69:69:69 / qpstep=4 / vbv_maxrate=50000 / vbv_bufsize=62500 / crf_max=0.0 / nal_hrd=none / filler=0 / ip_ratio=1.40 / pb_ratio=1.30 / aq=3:0.90 / aq-sensitivity=10.00 / aq-factor=1.00:1.00:1.00 / aq2=0 / aq3=0
Default : Yes
Forced : No
Audio
ID : 2
Format : AC-3
Format/Info : Audio Coding 3
Commercial name : Dolby Digital
Codec ID : A_AC3
Duration : 1 h 52 min
Bit rate mode : Constant
Bit rate : 384 kb/s
Channel(s) : 6 channels
Channel layout : L R C LFE Ls Rs
Sampling rate : 48.0 kHz
Frame rate : 31.250 FPS (1536 SPF)
Compression mode : Lossy
Stream size : 309 MiB (20%)
Language : Russian
Service kind : Complete Main
Default : Yes
Forced : No
Text #1
ID : 3
Format : UTF-8
Codec ID : S_TEXT/UTF8
Codec ID/Info : UTF-8 Plain Text
Duration : 1 h 50 min
Bit rate : 3 b/s
Count of elements : 65
Stream size : 3.18 KiB (0%)
Title : Forced
Language : Russian
Default : Yes
Forced : No
Text #2
ID : 4
Format : UTF-8
Codec ID : S_TEXT/UTF8
Codec ID/Info : UTF-8 Plain Text
Duration : 1 h 50 min
Bit rate : 96 b/s
Count of elements : 1679
Stream size : 78.3 KiB (0%)
Language : Russian
Default : No
Forced : No

Скриншоты

Профиль [ЛС]
Показать сообщения:    

Текущее время: 19-Сен 06:05

Часовой пояс: UTC ± 0



Вы не можете начинать темы
Вы не можете отвечать на сообщения
Вы не можете редактировать свои сообщения
Вы не можете удалять свои сообщения
Вы не можете голосовать в опросах
Вы не можете прикреплять файлы к сообщениям
Вы не можете скачивать файлы