Статистика раздачи
Размер:  1,46 GB   |    Зарегистрирован:  6 месяцев 16 дней   |    Скачан:  0 раз

Полного источника не было: Никогда

 
     
 
 

солнышко ®

Пол:
Не указан
Стаж:
8 месяцев 1 день
Сообщений:
565

Это мой год / This Is My Year
Страна: США
Жанр: драма
Год выпуска: 2018
Продолжительность: 01:37:36-Перевод: Любительский (многоголосый закадровый) | HDRezka Studio
Субтитры: нет
Оригинальная аудиодорожка: нет-Режиссер: Джэми Бриндл / Jamie Brindle-В ролях: Канани Роуз Роджерс, Элла Кэннон, Эр.Джей. Хейнс, Люк Стратт-МакКлюр, Ян Сейп, Джон Люке, Лана МакКиссак, Мичал Соренсен, Кэтрин Кичено, Дэмиэн Вашингтон-Описание: Действие фильма разворачивается в Лос-Анджелесе, куда в погоне за мечтой приезжает молодая сценаристка Коннор и её подружка София, начинающая актриса. Познакомившись со своими соседями, двумя веселыми молодыми парнями, преисполненные оптимизма девушки сразу же бросаются покорять фабрику грёз, но очень быстро сталкиваются с тем, что в их услугах здесь никто не нуждается. Суровая реальность слегка охлаждает пыл Коннор, но впереди у неё есть целый год, чтобы либо доказать свое право на место под солнцем, либо распрощаться со своей мечтой.- -Качество видео: WEB-DLRip
Формат видео: AVI
Видео: 720x368 (1.96:1), 23.976 fps, XviD build 73 ~1933 kbps avg, 0.30 bit/pixel
Аудио: 48 kHz, AC3 Dolby Digital, 2/0 (L,R) ch, ~192 kbps-[box]Сэмпл[/box]-

MediaInfo

Код:Формат : AVI
Формат/Информация : Audio Video Interleave
Размер файла : 1,46 Гбайт
Продолжительность : 1 ч. 37 м.
Общий поток : 2135 Кбит/сек
Программа кодирования : VirtualDubMod 1.5.10.3 | www.virtualdub-fr.org || (build 2550/release)
Библиотека кодирования : VirtualDubMod build 2550/release
Видео
Идентификатор : 0
Формат : MPEG-4 Visual
Профиль формата : Advanced Simple@L5
Настройки формата : BVOP1 / Custom Matrix
Параметр BVOP формата : 1
Параметр QPel формата : Нет
Параметр GMC формата : Без точки перехода
Параметр матрицы формата : Выборочная
Идентификатор кодека : XVID
Идентификатор кодека/Подсказка : XviD
Продолжительность : 1 ч. 37 м.
Битрейт : 1934 Кбит/сек
Ширина : 720 пикселей
Высота : 368 пикселей
Соотношение сторон : 1,957
Частота кадров : 23,976 (24000/1001) кадра/сек
Цветовое пространство : YUV
Субдискретизация насыщенности : 4:2:0
Битовая глубина : 8 бит
Тип развёртки : Прогрессивная
Метод сжатия : С потерями
Бит/(Пиксели*Кадры) : 0.304
Размер потока : 1,32 Гбайт (91%)
Библиотека кодирования : XviD 73
Аудио
Идентификатор : 1
Формат : AC-3
Формат/Информация : Audio Coding 3
Коммерческое название : Dolby Digital
Идентификатор кодека : 2000
Продолжительность : 1 ч. 37 м.
Вид битрейта : Постоянный
Битрейт : 192 Кбит/сек
Каналы : 2 канала
ChannelLayout : L R
Частота : 48,0 КГц
Частота кадров : 31,250 кадров/сек (1536 SPF)
Битовая глубина : 16 бит
Метод сжатия : С потерями
Размер потока : 134 Мбайт (9%)
Выравнивание : Разделение по промежуткам
Продолжительность промежутка : 42 мс. (1,00 видеокадр)
Время предзагрузки промежутка : 500 мс.
ServiceKind/String : Complete Main

Скриншоты


[cybertorrent.net].t2316.torrent 
Торрент: Зарегистрирован [ 2019-04-27 17:09 ] · 065BDC51921A16B8AAD749B9AEF4410E38AFD930

Скачать .torrent

Скачать

15 KB

Статус: проверено
Скачан: 0 раз
Размер: 1,46 GB
terms.php
Профиль ЛС
Показать сообщения:    

Текущее время: 13-Ноя 17:53

Часовой пояс: UTC ± 0



Вы не можете начинать темы
Вы не можете отвечать на сообщения
Вы не можете редактировать свои сообщения
Вы не можете удалять свои сообщения
Вы не можете голосовать в опросах
Вы не можете прикреплять файлы к сообщениям
Вы можете скачивать файлы