Статистика раздачи
Размер:  1,47 GB   |    Зарегистрирован:  7 месяцев 13 дней   |    Скачан:  0 раз

Полного источника не было: Никогда

 
     
 
 

солнышко ®

Пол:
Не указан
Стаж:
8 месяцев 28 дней
Сообщений:
565

Дыхание / Breath
Страна: Австралия
Жанр: драма, спорт
Год выпуска: 2017
Продолжительность: 01:55:25
Перевод: Любительский (многоголосый закадровый) HDRezka Studio
Субтитры: нет
Оригинальная аудиодорожка: нет
Режиссер: Саймон Бейкер / Simon Baker
В ролях: Элизабет Дебики, Ричард Роксбург, Саймон Бэйкер, Рэйчел Блэйк, Яцек Коман, Меган Смарт, Самсон Култер, Бен Спенс, Миранда Франгоу, Брок Фитцджеральд

Описание: Австралия, 70-е годы ХХ столетия. Подросток Пайклет знакомится с мальчишкой Луни, и вскоре ребята становятся лучшими друзьями. Вместе они катаются на велосипедах по округе, купаются в речке, проводят время на побережье, наблюдая за сёрферами на волнах океана. Мечтая так же покорять волны, Пайклет с другом принимаются за создание своих досок из пенопласта. Знакомство с матёрым сёрфером Сандо кардинально меняет жизнь друзей.
Кинопоиск - IMDb
Sample
Качество видео: HDRip
Формат видео: AVI
Видео: 720x400 (1.80:1), 24 fps, XviD build 73 ~1618 kbps avg, 0.23 bit/pixel
Аудио: Russian (AC3, 2 ch, 192 kbps, 16 bits, 48.0 KHz) - MVO

MediaInfo

General
Complete name : D:\Breath 2017 HDRip.avi
Format : AVI
Format/Info : Audio Video Interleave
File size : 1.47 GiB
Duration : 1 h 55 min
Overall bit rate : 1 820 kb/s
Writing application : VirtualDubMod 1.5.10.3 | www.virtualdub-fr.org || (build 2550/release)
Writing library : VirtualDubMod build 2550/release
Video
ID : 0
Format : MPEG-4 Visual
Format profile : Advanced Simple@L5
Format settings : BVOP1 / Custom Matrix
Format settings, BVOP : 1
Format settings, QPel : No
Format settings, GMC : No warppoints
Format settings, Matrix : Custom
Codec ID : XVID
Codec ID/Hint : XviD
Duration : 1 h 55 min
Bit rate : 1 618 kb/s
Width : 720 pixels
Height : 400 pixels
Display aspect ratio : 16:9
Frame rate : 24.000 FPS
Color space : YUV
Chroma subsampling : 4:2:0
Bit depth : 8 bits
Scan type : Progressive
Compression mode : Lossy
Bits/(Pixel*Frame) : 0.234
Stream size : 1.30 GiB (89%)
Writing library : XviD 73
Audio
ID : 1
Format : AC-3
Format/Info : Audio Coding 3
Codec ID : 2000
Duration : 1 h 55 min
Bit rate mode : Constant
Bit rate : 192 kb/s
Channel(s) : 2 channels
Channel positions : Front: L R
Sampling rate : 48.0 kHz
Frame rate : 31.250 FPS (1536 SPF)
Bit depth : 16 bits
Compression mode : Lossy
Stream size : 159 MiB (11%)
Alignment : Split accross interleaves
Interleave, duration : 42 ms (1.00 video frame)
Interleave, preload duratio : 500 ms
Service kind : Complete Main

Скриншоты



[cybertorrent.net].t2306.torrent 
Торрент: Зарегистрирован [ 2019-04-26 16:37 ] · E350503CEBDEC14301DAA660893AB01451D33550

Скачать .torrent

Скачать

15 KB

Статус: проверено
Скачан: 0 раз
Размер: 1,47 GB
terms.php
Профиль [ЛС]
Показать сообщения:    

Текущее время: 10-Дек 09:12

Часовой пояс: UTC ± 0



Вы не можете начинать темы
Вы не можете отвечать на сообщения
Вы не можете редактировать свои сообщения
Вы не можете удалять свои сообщения
Вы не можете голосовать в опросах
Вы не можете прикреплять файлы к сообщениям
Вы можете скачивать файлы