Статистика раздачи
Размер:  1,46 GB   |    Зарегистрирован:  7 месяцев 17 дней   |    Скачан:  0 раз

Полного источника не было: Никогда

 
     
 
 

serzh ®

Пол:
Не указан
Стаж:
9 месяцев 1 день
Сообщений:
384

Поезд страха / Поезд ужаса / Жуть в поезде / Terror Train
Страна: США, Канада
Жанр: ужасы, триллер
Год выпуска: 1980
Продолжительность: 01:37:17
Перевод: Авторский (одноголосый закадровый) Сергей Кузнецов
Субтитры: нет
Режиссер: Роджер Споттисвуд / Roger Spottiswoode
В ролях: Бен Джонсон, Джейми Ли Кёртис, Харт Бокнер, Дэвид Копперфилд, Дерек МакКиннон, Сэнди Карри, Тимоти Уэббер, Энтони Шервуд, Ховард Басгэнг
Описание: Однажды под Новый Год, сокурсники решили подшутить над своим другом. Они сообщили ему, что с ним хочет переспать одна клёвая девушка и ждёт его в одном из уютных номеров. Придя на место, Кенни был готов уже пуститься во все тяжкие, но вместо девушки он обнаружил под одеялом кровавый труп, после чего сразу же попал в психушку. Спустя время его «друзья» снова организовывают вечеринку-маскарад в несущемся поезде, где вскоре появляется еще один незваный гость, которому не до веселья…
Доп. информация: Выражаю огромную благодарность Нордеру за синхронизацию звуковой дорожки. За дорогу благодарим m.mamichev
Сэмпл: https://yadi.sk/i/ywTSCiIze9KQmQ
Качество видео: HDRip (Исходник Terror.Train.1980.BDRip.720p.mkv)
Формат видео: AVI
Видео: XviD 73, 720x384, (1,85:1), 23,976 fps, 1956 Кбит/с, 8 бит, 0.29 bit/pixel
Аудио: Русский (АС3, 2 ch (Front: L R), 48,0 KHz, 192 Kbps)

MediaInfo

Общее
Полное имя : D:\Фильмы на трекер\Поезд страха (ужасы, триллер 1982 год).avi
Формат : AVI
Формат/Информация : Audio Video Interleave
Размер файла : 1,46 Гбайт
Продолжительность : 1 ч. 36 м.
Общий поток : 2158 Кбит/сек
Программа кодирования : VirtualDubMod 1.5.10.2 (build 2540/release)
Библиотека кодирования : VirtualDubMod build 2540/release
Видео
Идентификатор : 0
Формат : MPEG-4 Visual
Профиль формата : Advanced Simple@L5
Параметр BVOP формата : 2
Параметр QPel формата : Нет
Параметр GMC формата : Без точки перехода
Параметр матрицы формата : Выборочная
Идентификатор кодека : XVID
Идентификатор кодека/Подсказка : XviD
Продолжительность : 1 ч. 36 м.
Битрейт : 1956 Кбит/сек
Ширина : 720 пикселей
Высота : 384 пикселя
Соотношение сторон : 1,85:1
Частота кадров : 23,976 (23976/1000) кадра/сек
Цветовое пространство : YUV
Субдискретизация насыщенности : 4:2:0
Битовая глубина : 8 бит
Тип развёртки : Прогрессивная
Метод сжатия : С потерями
Бит/(Пиксели*Кадры) : 0.295
Размер потока : 1,32 Гбайт (91%)
Библиотека кодирования : XviD 73
Аудио
Идентификатор : 1
Формат : AC-3
Формат/Информация : Audio Coding 3
Расширение режима : CM (complete main)
Параметр Endianness формата : Big
Идентификатор кодека : 2000
Продолжительность : 1 ч. 36 м.
Вид битрейта : Постоянный
Битрейт : 192 Кбит/сек
Каналы : 2 канала
Расположение каналов : Front: L R
Частота : 48,0 КГц
Частота кадров : 31,250 кадров/сек (1536 spf)
Метод сжатия : С потерями
Размер потока : 133 Мбайт (9%)
Выравнивание : Разделение по промежуткам
Продолжительность промежутка : 42 мс. (1,00 видеокадр)
Время предзагрузки промежутка : 500 мс.

Скриншот c названием фильма

Скриншоты

[cybertorrent.net].t2305.torrent 
Торрент: Зарегистрирован [ 2019-04-26 16:37 ] · 6B7F264CE0F28E9E6B99BE5ED163C2E9FD34F3C5

Скачать .torrent

Скачать

15 KB

Статус: проверено
Скачан: 0 раз
Размер: 1,46 GB
terms.php
Профиль [ЛС]
Показать сообщения:    

Текущее время: 14-Дек 01:36

Часовой пояс: UTC ± 0



Вы не можете начинать темы
Вы не можете отвечать на сообщения
Вы не можете редактировать свои сообщения
Вы не можете удалять свои сообщения
Вы не можете голосовать в опросах
Вы не можете прикреплять файлы к сообщениям
Вы можете скачивать файлы