Статистика раздачи
Размер:  1,47 GB   |    Зарегистрирован:  7 месяцев 14 дней   |    Скачан:  0 раз

Полного источника не было: Никогда

 
     
 
 

Гость ®

Пол:
Не указан

Мой отец – служанка / Мой папа - уборщица / Mon père est femme de ménage / My Father Is a Cleaning Lady
Страна: Франция
Жанр: драма, комедия
Год выпуска: 2011
Продолжительность: 01:16:41
Перевод: Одноголосый закадровый Den904
Субтитры: русские (Михаил Васильев), английские
Оригинальная аудиодорожка: французский
Режиссер: Сафия Азедин / Saphia Azzeddine
В ролях: Франсуа Клюзе, Джереми Дюваль, Нану Гарсия, Элисон Вилер, Аимен Деррьячи, Жюль Ситрук, Барбара Пробст, Франк Кейта, Абдель-Аким Мебтуш, Мелезе Бузид

Описание: Поло обычный шестнадцатилетний подросток с обычными для своего возраста проблемами. Старательный в учебе он пока не имеет особых целей в жизни, за исключением желания завоевать сердце обаятельной Присциллы, которая видит в нем только друга.
Между прикованной к постели матерью и мечтающей стать королевой красоты сестрой он находит понимание только у отца, который зарабатывает на жизнь уборкой престижных парижских офисов. По вечерам и выходным он помогает отцу в работе, за что его высмеивают одноклассники, однако тот считает, что сын заслуживает большего, чем такую скромную жизнь.

Доп. информация: перевод - Михаил Васильев, организация перевода, озвучания и редактирование русского текста - sergeyk888.
Кинопоиск - IMDb
Sample
Качество видео: HDRip
Формат видео: AVI
Видео: 720x384 (1.88:1), 23.976 fps, XviD build 73 ~2079 kbps avg, 0.31 bit/pixel
Аудио #1: Russian (AC3, 2 ch, 192 kbps, 16 bits, 48.0 KHz) - VO
Аудио #2: French (AC3, 6 ch, 448 kbps, 16 bits, 48.0 KHz) - оригинал
Формат субтитров: softsub (SRT)

MediaInfo

General
Complete name : D:\Mon pere est femme de menage 2011 HDRip\Mon pere est femme de menage 2011 HDRip.avi
Format : AVI
Format/Info : Audio Video Interleave
File size : 1.46 GiB
Duration : 1 h 16 min
Overall bit rate : 2 735 kb/s
Writing application : VirtualDubMod 1.5.10.3 | www.virtualdub-fr.org || (build 2550/release)
Writing library : VirtualDubMod build 2550/release
Video
ID : 0
Format : MPEG-4 Visual
Format profile : Advanced Simple@L5
Format settings : BVOP1
Format settings, BVOP : 1
Format settings, QPel : No
Format settings, GMC : No warppoints
Format settings, Matrix : Default (MPEG)
Codec ID : XVID
Codec ID/Hint : XviD
Duration : 1 h 16 min
Bit rate : 2 080 kb/s
Width : 720 pixels
Height : 384 pixels
Display aspect ratio : 1.85:1
Frame rate : 23.976 (24000/1001) FPS
Color space : YUV
Chroma subsampling : 4:2:0
Bit depth : 8 bits
Scan type : Progressive
Compression mode : Lossy
Bits/(Pixel*Frame) : 0.314
Stream size : 1.11 GiB (76%)
Writing library : XviD 73
Audio #1
ID : 1
Format : AC-3
Format/Info : Audio Coding 3
Codec ID : 2000
Duration : 1 h 16 min
Bit rate mode : Constant
Bit rate : 192 kb/s
Channel(s) : 2 channels
Channel positions : Front: L R
Sampling rate : 48.0 kHz
Frame rate : 31.250 FPS (1536 SPF)
Bit depth : 16 bits
Compression mode : Lossy
Stream size : 105 MiB (7%)
Alignment : Split accross interleaves
Interleave, duration : 42 ms (1.00 video frame)
Interleave, preload duratio : 500 ms
Service kind : Complete Main
Audio #2
ID : 2
Format : AC-3
Format/Info : Audio Coding 3
Codec ID : 2000
Duration : 1 h 16 min
Bit rate mode : Constant
Bit rate : 448 kb/s
Channel(s) : 6 channels
Channel positions : Front: L C R, Side: L R, LFE
Sampling rate : 48.0 kHz
Frame rate : 31.250 FPS (1536 SPF)
Bit depth : 16 bits
Compression mode : Lossy
Stream size : 246 MiB (16%)
Alignment : Split accross interleaves
Interleave, duration : 42 ms (1.00 video frame)
Interleave, preload duratio : 500 ms
Service kind : Complete Main

Скриншоты



[cybertorrent.net].t2298.torrent 
Торрент: Зарегистрирован [ 2019-04-26 16:37 ] · 5C215427D2EC0C5C6AFD3A313EBD7CB925D39299

Скачать .torrent

Скачать

15 KB

Статус: проверено
Скачан: 0 раз
Размер: 1,47 GB
terms.php
Показать сообщения:    

Текущее время: 11-Дек 07:05

Часовой пояс: UTC ± 0



Вы не можете начинать темы
Вы не можете отвечать на сообщения
Вы не можете редактировать свои сообщения
Вы не можете удалять свои сообщения
Вы не можете голосовать в опросах
Вы не можете прикреплять файлы к сообщениям
Вы можете скачивать файлы