Статистика раздачи
Размер:  1,46 GB   |    Зарегистрирован:  6 месяцев 21 день   |    Скачан:  0 раз

Полного источника не было: Никогда

 
     
 
 

serzh ®

Пол:
Не указан
Стаж:
8 месяцев 5 дней
Сообщений:
384

Малыш-мотоциклист / Мальчишка с мопедом-внедорожником / The Dirt Bike Kid
Страна: США
Жанр: фэнтези, комедия, семейный
Год выпуска: 1985
Продолжительность: 01:30:38
Перевод: Авторский (одноголосый закадровый) Юрий Живов
Субтитры: нет
Оригинальная аудиодорожка: английский
Режиссер: Хойт Кастон / Hoite C. Caston
В ролях: Питер Биллингсли, Стюарт Пэнкин, Энн Блум, Патрик Коллинз, Сэйдж Паркер, Чад Шитс, Гэвин Аллен, Дэнни Брин, Уизел Форшоу, Джон Уильям Голт

Описание: Мама просто послала Джека за покупками, разве она могла знать, что сын вернется домой с волшебным мотоциклом. Мама не была очень довольна появлению мотоцикла, но все изменилось, когда Джек при помощи мотоцикла спас маленький киоск по продаже хот-догов от жадных бизнесменов.
Доп. информация: перевод/озвучка - Юрий Живов 2019 год, сведение звука - Diablo, организация перевода - Minhers76.
Кинопоиск - IMDb
Sample
Качество видео: HDRip
Формат видео: AVI
Видео: 720x400 (1.80:1), 23.976 fps, XviD build 73 ~1914 kbps avg, 0.28 bit/pixel
Аудио #1: Russian (AC3, 2 ch, 192 kbps, 16 bits, 48.0 KHz) - AVO
Аудио #2: English (AC3, 2 ch, 192 kbps, 16 bits, 48.0 KHz) - оригинал

MediaInfo

General
Complete name : D:\The Dirt Bike Kid 1985.avi
Format : AVI
Format/Info : Audio Video Interleave
File size : 1.46 GiB
Duration : 1 h 30 min
Overall bit rate : 2 314 kb/s
Writing application : VirtualDubMod 1.5.10.3 | www.virtualdub-fr.org || (build 2550/release)
Writing library : VirtualDubMod build 2550/release
Video
ID : 0
Format : MPEG-4 Visual
Format profile : Advanced Simple@L5
Format settings : BVOP1
Format settings, BVOP : 1
Format settings, QPel : No
Format settings, GMC : No warppoints
Format settings, Matrix : Default (MPEG)
Codec ID : XVID
Codec ID/Hint : XviD
Duration : 1 h 30 min
Bit rate : 1 915 kb/s
Width : 720 pixels
Height : 400 pixels
Display aspect ratio : 16:9
Frame rate : 23.976 (24000/1001) FPS
Color space : YUV
Chroma subsampling : 4:2:0
Bit depth : 8 bits
Scan type : Progressive
Compression mode : Lossy
Bits/(Pixel*Frame) : 0.277
Stream size : 1.21 GiB (83%)
Writing library : XviD 73
Audio #1
ID : 1
Format : AC-3
Format/Info : Audio Coding 3
Codec ID : 2000
Duration : 1 h 30 min
Bit rate mode : Constant
Bit rate : 192 kb/s
Channel(s) : 2 channels
Channel positions : Front: L R
Sampling rate : 48.0 kHz
Frame rate : 31.250 FPS (1536 SPF)
Bit depth : 16 bits
Compression mode : Lossy
Stream size : 124 MiB (8%)
Alignment : Split accross interleaves
Interleave, duration : 42 ms (1.00 video frame)
Interleave, preload duratio : 500 ms
Service kind : Complete Main
Audio #2
ID : 2
Format : AC-3
Format/Info : Audio Coding 3
Codec ID : 2000
Duration : 1 h 30 min
Bit rate mode : Constant
Bit rate : 192 kb/s
Channel(s) : 2 channels
Channel positions : Front: L R
Sampling rate : 48.0 kHz
Frame rate : 31.250 FPS (1536 SPF)
Bit depth : 16 bits
Compression mode : Lossy
Stream size : 124 MiB (8%)
Alignment : Split accross interleaves
Interleave, duration : 42 ms (1.00 video frame)
Interleave, preload duratio : 500 ms
Service kind : Complete Main

Скриншоты



[cybertorrent.net].t2290.torrent 
Торрент: Зарегистрирован [ 2019-04-25 16:16 ] · CC275E6C33F0468F5A60ADDB31E758A593E6F65B

Скачать .torrent

Скачать

15 KB

Статус: проверено
Скачан: 0 раз
Размер: 1,46 GB
terms.php
Профиль ЛС
Показать сообщения:    

Текущее время: 17-Ноя 15:37

Часовой пояс: UTC ± 0



Вы не можете начинать темы
Вы не можете отвечать на сообщения
Вы не можете редактировать свои сообщения
Вы не можете удалять свои сообщения
Вы не можете голосовать в опросах
Вы не можете прикреплять файлы к сообщениям
Вы можете скачивать файлы